<?xml version="1.0" standalone="no"?>
<!DOCTYPE svg PUBLIC "-//W3C//DTD SVG 1.1//EN" "http://www.w3.org/Graphics/SVG/1.1/DTD/svg11.dtd" >
<svg xmlns="http://www.w3.org/2000/svg">
<metadata>Generated by IcoMoon</metadata>
<defs>
<font id="Pe-icon-7-filled" horiz-adv-x="512">
<font-face units-per-em="512" ascent="480" descent="-32" />
<missing-glyph horiz-adv-x="512" />
<glyph unicode="&#x20;" d="" horiz-adv-x="256" />
<glyph unicode="&#xe600;" d="M374.791 374.79c-83.288 83.288-218.293 83.288-301.581 0s-83.288-218.293 0-301.581 218.29-83.285 301.578 0.003c83.289 83.288 83.291 218.29 0.003 301.578zM320.106 139.957l-12.063-12.063-84.042 84.042-84.042-84.042-12.063 12.063 84.042 84.042-84.443 84.443 12.063 12.063 84.443-84.443 84.443 84.443 12.063-12.063-84.443-84.443 84.042-84.042z" horiz-adv-x="448" />
<glyph unicode="&#xe601;" d="M224 10.992c117.654 0 213.008 95.354 213.008 213.008s-95.354 213.008-213.008 213.008-213.008-95.354-213.008-213.008 95.354-213.008 213.008-213.008zM192.023 254.803l32.093 32.101 95.995-96.004-12.048-12.048-83.947 83.954-84.346-84.355-12.048 12.049 64.301 64.303z" horiz-adv-x="448" />
<glyph unicode="&#xe602;" d="M10.992 224c0-117.654 95.354-213.008 213.008-213.008s213.008 95.354 213.008 213.008-95.354 213.008-213.008 213.008-213.008-95.354-213.008-213.008zM254.803 255.977l32.101-32.093-96.004-95.995-12.048 12.048 83.954 83.947-84.355 84.346 12.049 12.048 64.303-64.301z" horiz-adv-x="448" />
<glyph unicode="&#xe603;" d="M437.008 224c0 117.654-95.354 213.008-213.008 213.008s-213.008-95.354-213.008-213.008 95.354-213.008 213.008-213.008 213.008 95.354 213.008 213.008zM193.197 192.023l-32.101 32.093 96.004 95.995 12.048-12.048-83.954-83.947 84.355-84.346-12.049-12.048-64.303 64.301z" horiz-adv-x="448" />
<glyph unicode="&#xe604;" d="M224 437.008c-117.654 0-213.008-95.354-213.008-213.008s95.354-213.008 213.008-213.008 213.008 95.354 213.008 213.008-95.354 213.008-213.008 213.008zM255.977 193.197l-32.093-32.101-95.995 96.004 12.048 12.048 83.947-83.954 84.346 84.355 12.048-12.049-64.301-64.303z" horiz-adv-x="448" />
<glyph unicode="&#xe605;" d="M419.1 326.3c0 1.4 0.2 2.7 0.2 4 0 73.1-59.2 132.2-132.2 132.2-52.6 0-97.9-30.8-119.2-75.3-9.2 4.6-19.6 7.3-30.6 7.3-33.8 0-61.8-24.6-67.2-56.8-40.3-13.7-69.3-51.8-69.3-96.7 0-56.5 45.8-102.3 102.3-102.3h145.1v138l-55.8-55.8-12.1 12.1 76.4 76.4 76.4-76.4-12.1-12.1-55.8 55.8v-138h154c51.6 0.3 93.4 42.2 93.4 93.8 0 51.7-41.8 93.6-93.5 93.8z" />
<glyph unicode="&#xe606;" d="M512.4 232.5c0-51.7-41.8-93.5-93.4-93.8h-316.1c-56.5 0-102.3 45.8-102.3 102.3 0 44.9 29 83 69.2 96.8 5.5 32.2 33.4 56.8 67.2 56.8 11 0 21.4-2.7 30.6-7.3 21.3 44.5 66.6 75.3 119.2 75.3 73 0 132.2-59.2 132.2-132.2 0-1.4-0.2-2.7-0.2-4 51.7-0.3 93.6-42.2 93.6-93.9zM265 17.8v103.8h-17v-103.8l-55.8 55.8-12.1-12.1 76.4-76.4 76.4 76.4-12.1 12.1-55.8-55.8z" />
<glyph unicode="&#xe607;" d="M118.835-31.772v233.483l-101.895-101.837-11.88 11.88 107.901 107.851-113.234 113.152 11.88 11.896 107.228-107.154v241.736l138.832-138.765-120.93-120.864 116.827-116.745-134.728-134.63zM135.637 196.952v-188.18l94.152 94.085-94.152 94.094zM135.637 438.688v-196.424l98.254 98.204-98.254 98.221z" horiz-adv-x="258" />
<glyph unicode="&#xe608;" d="M320.784 443.529l-75.692-75.7c57.822-16.252 102.42-64.222 113.678-123.949l80.825 80.836-118.811 118.814zM48.454 171.19l-48.454-48.445 24.761-96.038 94.052-22.774 53.59 53.581c-59.727 11.257-107.689 55.855-123.95 113.677zM344.050 229.162c-6.43 62.097-52.654 112.356-112.726 124.891l-0.032-0.024c-9.468 1.986-19.264 3.052-29.305 3.052-64.878 0-119.692-43.514-137.026-102.856-3.692-12.691-5.776-26.065-5.776-39.945 0-3.782 0.279-7.5 0.575-11.208 0.082-1.149 0.066-2.329 0.18-3.47 0.164-1.666 0.526-3.264 0.748-4.914 0.452-3.216 0.853-6.448 1.51-9.599 12.494-60.178 62.836-106.474 125.024-112.873 4.561-0.452 9.188-0.68 13.864-0.714 0.313 0 0.607-0.050 0.911-0.050 78.752 0.010 142.81 64.075 142.81 142.82 0 5.022-0.279 9.976-0.788 14.867l0.034 0.024zM246.454 157.916l-52.868 52.877v95.882h16.803v-88.925l47.945-47.954-11.88-11.88z" horiz-adv-x="440" />
<glyph unicode="&#xe609;" d="M50.487 253.151c0-88.147 71.46-159.613 159.621-159.613s159.622 71.466 159.622 159.613c0 88.18-71.459 159.628-159.622 159.628-88.162 0-159.621-71.45-159.621-159.628zM305.26 65.76l8.106-16.344 15.043 7.45-22.84 46.125-15.045-7.466 7.267-14.685c-27.024-13.764-57.117-21.069-87.685-21.069-106.588 0-193.306 86.76-193.306 193.38 0 72.639 41.153 139.274 105.424 172.172l7.81-15.769 15.064 7.466-22.84 46.107-15.064-7.457 7.581-15.3c-69.966-35.721-114.776-108.197-114.776-187.219 0-113.070 89.737-205.539 201.708-209.97v-25.565c-38.79-1.51-74.921-13.471-105.57-33.292h35.146c24.054 10.764 50.685 16.801 78.709 16.801 27.534 0 54.199-5.972 78.532-16.801h35.293c-31.029 19.986-67.291 31.733-105.308 33.292v25.63c30.256 1.214 59.891 8.877 86.75 22.514z" horiz-adv-x="370" />
<glyph unicode="&#xe60a;" d="M218.436 395.755l-123.129-98.138h-95.282v-75.963l-0.050-0.041 0.050-0.050v-75.166h95.792l122.62-96.236v96.236h0.016v151.219h-0.016zM257.685 308.381c18.277-24.35 27.942-53.376 27.942-83.937 0-31.2-10.024-60.72-29.010-85.364l13.308-10.256c21.264 27.615 32.505 60.68 32.505 95.62 0 34.228-10.83 66.741-31.308 94.029l-13.438-10.091zM325.372 369.288l-12.948-10.698c31.57-38.232 48.947-86.653 48.947-136.337 0-49.11-16.147-95.3-46.698-133.564l13.125-10.486c32.964 41.284 50.375 91.092 50.375 144.048-0.002 53.582-18.756 105.802-52.8 147.036zM377.695 423.839l-12.618-11.101c46.337-52.622 71.868-120.29 71.868-190.55 0-68.834-24.627-135.467-69.358-187.63l12.767-10.935c47.32 55.207 73.394 125.729 73.394 198.566 0 74.346-27.009 145.967-76.053 201.649z" horiz-adv-x="454" />
<glyph unicode="&#xe60b;" d="M153.794 131.024c14.44 6.038 44.861 16.745 70.195 24.875 3.2 1.036 6.334 2.017 9.337 2.954 0.41 0.123 0.79 0.245 1.198 0.37 2.922 0.902 5.758 1.764 8.383 2.541 2.296 0.722 2.659 0.839 2.659 10.397 0 1.969-0.197 3.946-0.56 5.906-0.23 1.257-0.59 2.486-0.933 3.726-0.18 0.688-0.314 1.402-0.528 2.084-0.327 1.026-0.721 2.002-1.098 3.005-1.018 2.724-2.132 5.39-3.298 7.849-0.852 1.822-1.756 3.956-2.625 6.3-0.296 0.755-0.542 1.632-0.821 2.42-0.607 1.69-1.214 3.356-1.774 5.185-0.279 0.92-0.489 1.902-0.756 2.846-0.49 1.805-1.014 3.596-1.442 5.449-0.427 1.839-0.706 3.676-1.001 5.514-0.162 0.967-0.41 1.952-0.542 2.912v0.008c-1.524 1.772-3.264 4.201-5.036 7.465-0.214 0.41-0.427 0.903-0.656 1.338-0.362 0.73-0.739 1.419-1.1 2.224-0.542 1.19-1.083 2.494-1.608 3.864-0.048 0.107-0.082 0.197-0.131 0.304-0.524 1.394-1.050 2.904-1.559 4.496-0.032 0.13-0.082 0.23-0.114 0.362-0.51 1.598-1.001 3.332-1.46 5.144-0.049 0.14-0.082 0.263-0.131 0.411-0.493 1.976-0.984 4.076-1.428 6.31-0.377 1.887-0.673 3.625-0.935 5.242-0.049 0.361-0.083 0.673-0.131 1.016-0.18 1.238-0.345 2.421-0.444 3.514-0.032 0.369-0.065 0.696-0.082 1.058-0.082 0.943-0.148 1.853-0.18 2.699-0.017 0.468-0.017 0.911-0.017 1.354 0 0.606 0.017 1.19 0.034 1.738 0.032 0.625 0.066 1.232 0.131 1.815 0.017 0.288 0.048 0.567 0.082 0.837 0.098 0.73 0.196 1.443 0.345 2.132 0.017 0.099 0.034 0.205 0.065 0.304 0.148 0.722 0.328 1.428 0.525 2.108 0.032 0.115 0.066 0.238 0.098 0.354 0.18 0.574 0.394 1.149 0.59 1.722 0.114 0.296 0.214 0.606 0.328 0.903 0.017 0.034 0.032 0.066 0.032 0.098l0.131 0.312c0.164 0.418 0.311 0.846 0.442 1.264l0.017 0.066c0.048 0.262 0.065 0.73 0.098 1.091 0.032 0.337 0.083 0.566 0.098 0.992 0.23 4.66-0.328 14.112-1.46 23.686-0.017 0.082-0.017 0.164-0.032 0.246-0.18 1.485-0.377 2.953-0.575 4.422-0.082 0.516-0.131 1.041-0.214 1.558-0.245 1.656-0.508 3.25-0.786 4.816-0.049 0.262-0.082 0.541-0.132 0.803-0.23 1.28-0.393 2.74-0.476 4.357-0.377 6.841 0.804 16.424 4.495 26.401 2.363 6.375 5.712 12.913 10.486 19.026 0.048 0.058 0.097 0.106 0.148 0.164 1.314 1.682 2.739 3.257 4.184 4.784 0.82 0.846 1.708 1.69 2.625 2.536 0.672 0.648 1.376 1.279 2.083 1.895 1.264 1.083 2.608 2.166 4.070 3.216 0.375 0.287 0.77 0.558 1.164 0.837 1.707 1.19 3.528 2.354 5.481 3.463 0.246 0.131 0.492 0.27 0.738 0.41 2.036 1.115 4.234 2.182 6.546 3.166 0.327 0.14 0.656 0.28 0.986 0.41 2.231 0.91 4.611 1.731 7.088 2.486 0.541 0.156 1.067 0.336 1.625 0.484 2.413 0.674 4.973 1.238 7.632 1.74 0.654 0.115 1.262 0.27 1.934 0.377 3.298 0.549 6.778 0.976 10.468 1.206l16.983-0.017c2.018-0.123 3.822-0.435 5.728-0.665 1.772-0.213 3.644-0.352 5.317-0.648 1.721-0.304 3.264-0.738 4.89-1.124 1.541-0.362 3.182-0.656 4.644-1.091 1.591-0.468 2.986-1.042 4.464-1.576 1.31-0.476 2.707-0.894 3.954-1.418 1.444-0.608 2.74-1.313 4.084-1.986 1.068-0.542 2.233-1.034 3.25-1.608 1.328-0.755 2.512-1.567 3.741-2.371 0.853-0.55 1.788-1.074 2.592-1.649 1.313-0.944 2.46-1.928 3.642-2.904 0.56-0.459 1.214-0.918 1.74-1.394 1.346-1.181 2.526-2.387 3.69-3.577 0.264-0.279 0.575-0.541 0.82-0.813 1.378-1.468 2.608-2.92 3.708-4.332 14.029-17.926 16.36-39.593 14.505-49.774-0.067-0.41-0.132-0.837-0.198-1.248-0.245-1.362-0.476-2.732-0.688-4.168-0.804-5.398-1.396-10.978-1.788-16.014-0.016-0.296-0.048-0.599-0.068-0.886-0.098-1.255-0.162-2.412-0.228-3.568-0.033-0.55-0.082-1.116-0.099-1.632-0.048-1.066-0.082-2.002-0.115-2.938-0.015-0.459-0.034-0.952-0.034-1.378-0.033-1.28-0.015-2.38 0.015-3.307 0-0.016 0-0.040 0-0.056 0.034-0.984 0.084-1.772 0.18-2.274 0.017-0.024 0.017-0.090 0.017-0.114v-0.024c0.163-0.608 0.376-1.157 0.606-1.707 1.212-3.159 2.016-6.317 2.18-10.42 0-0.114 0-0.23 0-0.344 0.034-0.87 0.034-1.79 0-2.757-0.016-0.492-0.066-1.050-0.098-1.594-0.048-0.68-0.099-1.352-0.166-2.083-0.098-0.894-0.229-1.878-0.36-2.864-0.082-0.534-0.13-1.008-0.214-1.567-0.245-1.608-0.558-3.33-0.933-5.217-3.118-15.637-7.793-24.744-11.635-29.93-0.541-0.738-1.082-1.404-1.59-1.994-0.625-4.735-1.774-9.64-3.103-14.348-0.212-0.788-0.394-1.616-0.639-2.378-0.442-1.486-0.935-2.806-1.41-4.202-0.396-1.132-0.772-2.363-1.164-3.413-0.887-2.339-1.792-4.462-2.644-6.286-0.623-1.337-1.163-2.796-1.639-4.397-0.084-0.279-0.116-0.632-0.198-0.918-0.362-1.354-0.688-2.74-0.952-4.3-0.115-0.712-0.164-1.558-0.245-2.313-0.164-1.255-0.346-2.445-0.428-3.822-0.147-2.216-0.229-4.596-0.229-7.163 0-6.342 0.18-8.5 0.92-9.452 0.015-0.048 0.034-0.164 0.067-0.205 0.031-0.041 0.245-0.164 0.558-0.313 0.279-0.148 0.59-0.264 0.967-0.385 1.74-0.517 3.544-1.060 5.399-1.625 10.714-3.29 23.267-7.483 35.541-11.774 0.425-0.147 0.853-0.293 1.264-0.442 1.361-0.485 2.707-0.959 4.051-1.443 0.758-0.264 1.512-0.526 2.248-0.788 0.887-0.32 1.74-0.632 2.625-0.944 1.2-0.434 2.411-0.87 3.594-1.296 0.362-0.13 0.69-0.254 1.050-0.385 1.658-0.598 3.317-1.197 4.923-1.794 0.23-0.091 0.459-0.173 0.707-0.264 7.498-2.772 14.341-5.389 19.87-7.622 2.838-1.14 5.348-2.183 7.416-3.092 1.509-0.65 2.856-1.373 4.118-2.125 0.491-0.312 0.952-0.648 1.41-0.976 0.707-0.476 1.38-0.96 2.002-1.469 0.524-0.433 1-0.902 1.476-1.377 0.445-0.442 0.887-0.877 1.298-1.338 0.476-0.548 0.92-1.123 1.344-1.714 0.296-0.428 0.592-0.846 0.854-1.279 0.41-0.649 0.771-1.329 1.115-2.026 0.197-0.41 0.394-0.829 0.574-1.248 0.294-0.738 0.574-1.51 0.804-2.296 0.132-0.418 0.264-0.827 0.362-1.255 0.212-0.837 0.375-1.707 0.509-2.592 0.065-0.396 0.148-0.788 0.197-1.19 0.149-1.264 0.23-2.56 0.23-3.913 0-8.803 0-34.277 0-41.308 0-0.238 0-0.5 0-0.698 0-5.949-3.527-16.104-16.292-16.104-0.115 0-0.361 0-0.509 0-11.322 0-88.294 0-123.558 0-10.697 0-17.589 0-17.589 0h-3.068c0 0-7.008 0-17.853 0-35.327 0-111.906 0-123.472 0-0.18 0-0.459 0-0.607 0-11.896 0-15.736 8.803-16.195 14.825v1.935l-0.097 41.318c0.002 8.758 5.99 20.13 19.38 25.864zM15.652 148.556c14.882 6.226 50.029 18.426 71.787 24.85 1.854 0.591 2.15 0.68 2.15 8.408 0 6.382-2.641 12.808-5.201 18.246-2.757 5.914-6.054 15.842-7.236 24.762-3.299 3.832-7.794 11.395-10.682 25.81-2.526 12.7-1.346 17.32 0.346 21.657 0.164 0.46 0.344 0.911 0.475 1.354 0.64 2.986-0.23 18.459-2.412 30.47-1.493 8.228 0.394 25.744 11.732 40.25 7.154 9.147 20.838 20.396 45.862 21.954h13.718c24.596-1.558 38.297-12.807 45.451-21.954 11.339-14.505 13.226-32.021 11.732-40.25-2.2-12.012-3.053-27.484-2.429-30.404 0.132-0.51 0.314-0.959 0.493-1.42 1.674-4.339 2.871-8.958 0.328-21.657-2.871-14.416-7.368-21.978-10.681-25.81-1.181-8.92-4.464-18.848-7.236-24.762-2.036-4.322-2.986-10.206-2.986-18.524 0-7.728 0.296-7.819 2.035-8.368 7.4-2.19 16.228-5.054 25.203-8.123-20.052-6.793-39.954-13.997-50.931-18.574-20.412-8.754-29.552-27.058-29.552-41.358l0.049-24.43c-1.378 0-2.855 0-4.48 0-28.945 0-92.1 0-100.025 0-10.305 0-13.16 8.221-13.16 13.029s0 26.606 0 33.958c-0.002 7.358 5.069 16.351 15.652 20.888z" horiz-adv-x="454" />
<glyph unicode="&#xe60c;" d="M201.625 425.356c-111.364 0-201.625-90.278-201.625-201.625s90.262-201.625 201.625-201.625c111.346 0 201.625 90.278 201.625 201.625s-90.279 201.625-201.625 201.625zM326.002 87.147c-34.26 13.553-82.37 28.469-82.37 31.57 0 3.84 0 16.803 0 16.803s23.102 5.25 37.803 5.25c14.704 0 25.204 0.92 37.806 16.671-15.755 27.829-33.604 90.444-33.604 122.473l-0.231-0.083c-2.461 44.204-38.969 79.318-83.781 79.318-44.811 0-81.32-35.113-83.764-79.318l-0.246 0.083c0-32.030-17.852-94.644-33.603-122.473 12.6-15.752 23.102-16.671 37.804-16.671s37.805-3.839 37.805-3.839 0-14.375 0-18.214c0-3.151-49.192-17.32-83.388-30.61-36.508 33.792-59.431 82.067-59.431 135.624 0 101.913 82.911 184.824 184.823 184.824s184.824-82.911 184.824-184.824c0-54.050-23.332-102.766-60.447-136.584z" horiz-adv-x="404" />
<glyph unicode="&#xe60d;" d="M420.026 223.731c0 116.007-94.036 210.026-210.026 210.026-115.992 0-210.028-94.019-210.028-210.026 0-115.99 94.036-210.028 210.028-210.028s210.026 94.036 210.026 210.028zM201.599 114.517v203.849l-81.886-81.885-11.879 11.879 102.166 102.167 102.174-102.168-11.878-11.879-81.894 81.886v-203.847l-16.803-0.002z" horiz-adv-x="420" />
<glyph unicode="&#xe60e;" d="M302.438 223.731c0 83.518-67.701 151.22-151.22 151.22s-151.22-67.702-151.22-151.22c0-83.516 67.701-151.22 151.22-151.22 83.52 0 151.22 67.702 151.22 151.22zM352.844 374.95h-128.87c56.264-27.18 95.267-84.659 95.267-151.219s-39.002-124.039-95.267-151.22h128.87c83.518 0 151.22 67.704 151.22 151.22 0 83.518-67.702 151.22-151.22 151.22z" horiz-adv-x="504" />
<glyph unicode="&#xe60f;" d="M216.784 189.207l250.703-1.91-14.406 14.488c-1.067 1.068-106.9 104.611-248.505 5.365l-44.925 65.98c5.694 4.734 10.615 10.608 14.325 17.556 15.292 28.666 4.446 64.279-24.202 79.564-28.666 15.292-64.288 4.462-79.564-24.203-15.293-28.656-4.463-64.272 24.202-79.572 16.392-8.736 35.032-8.902 50.882-2.116l39.561-58.102-67.668 0.516c-2.232 18.418-13.078 35.49-30.683 44.876-28.666 15.292-64.272 4.456-79.564-24.209-15.293-28.641-4.463-64.271 24.202-79.566 28.649-15.286 64.288-4.438 79.564 24.204 3.085 5.76 5.038 11.806 6.072 17.894l78.547-0.599c-1.903-42.014 5.678-75.478 18.099-102.296h-28.6v-16.803h117.616v16.803h-16.128l-69.524 102.13zM102.32 281.3c-20.428 10.902-28.19 36.401-17.294 56.83 10.895 20.437 36.394 28.198 56.84 17.294 20.428-10.895 28.19-36.394 17.278-56.83-10.895-20.445-36.394-28.19-56.822-17.293zM95.888 179.994c-10.895-20.43-36.394-28.19-56.839-17.294-20.428 10.911-28.19 36.394-17.294 56.831 10.912 20.436 36.394 28.197 56.839 17.293 20.428-10.903 28.189-36.394 17.294-56.83zM117.612 87.074h50.407v-16.803h-50.407v16.803zM319.238 87.074h50.407v-16.803h-50.408v16.803zM50.404 87.074h50.406v-16.803h-50.406v16.803zM386.445 87.074h50.407v-16.803h-50.408v16.803z" horiz-adv-x="468" />
<glyph unicode="&#xe610;" d="M0 416.956v-386.45h420.052v386.45h-420.052zM50.407 180.675v-50.404h-16.802v67.207h16.802v-16.803zM50.407 299.34v-50.407h-16.802v67.21h16.802v-16.803zM352.846 80.912h-285.638v285.637h285.637v-285.637h0.002zM336.044 349.746h-252.034v-252.031h252.034v252.031zM210.028 148.122c-38.904 0-70.934 29.404-75.118 67.208h-17.294v16.802h17.294c4.184 37.805 36.214 67.208 75.118 67.208 41.76 0 75.609-33.85 75.609-75.61 0-41.758-33.849-75.608-75.608-75.608zM210.028 282.538c-29.568 0-54.034-21.954-58.135-50.406h58.135v-16.802h-58.135c4.101-28.452 28.567-50.406 58.135-50.406 32.423 0 58.806 26.384 58.806 58.807s-26.382 58.808-58.806 58.808z" horiz-adv-x="420" />
<glyph unicode="&#xe611;" d="M210.006 13.704c116.008 0 210.028 94.028 210.028 210.018 0 116-94.019 210.028-210.028 210.028-115.99 0-210.028-94.028-210.028-210.028 0.001-115.99 94.037-210.019 210.028-210.019zM100.793 232.124h203.857l-81.894 81.894 11.88 11.88 102.174-102.176-102.173-102.166-11.88 11.88 81.894 81.885h-203.858v16.803z" horiz-adv-x="420" />
<glyph unicode="&#xe612;" d="M301.19 184.382l-132.433-132.423-0.066 0.072c-0.492-0.508-0.918-1.058-1.411-1.558-34.392-34.392-90.362-34.392-124.752 0-33.391 33.391-34.261 87.053-2.822 121.627l17.672-17.674 27.91 27.91c37.46-17.868 83.633-11.402 114.662 19.618l47.519 47.526 11.88-11.878 11.878 11.878-47.519 47.519 71.278 71.286-11.878 11.88-71.279-71.283-47.519 47.527 71.279 71.286-11.881 11.88-71.278-71.286-47.535 47.527-11.879-11.88 11.879-11.88-47.518-47.526c-31.028-31.028-37.493-77.202-19.624-114.669l-27.894-27.903 17.968-17.976c-37.986-41.136-37.115-105.448 2.822-145.387 40.94-40.947 107.557-40.947 148.512 0l133.908 133.909c29.338 29.348 77.086 29.348 106.424 0l11.88 11.878c-35.885 35.894-94.298 35.894-130.183 0z" horiz-adv-x="432" />
<glyph unicode="&#xe613;" d="M128.149 443.438l5.644-8.794c12.897-20.158 10.96-44.409 9.204-55.124 69.474-59.972 119.404-102.428 132.612-112.816 43.252 19.362 93.807 22.496 139.125 8.598l13.358-4.096-122.226-122.226 133.088-133.088-11.88-11.878-133.087 133.090-122.226-122.226-4.086 13.354c-14.143 46.108-11.060 95.318 8.598 139.127-10.403 13.25-52.999 63.327-113.086 132.923-4.578-0.459-9.057-0.706-13.389-0.706-26.976 0-40.282 8.926-41.71 9.944l-8.089 5.76 128.149 128.159z" horiz-adv-x="439" />
<glyph unicode="&#xe614;" d="M32.538 385.443c20.97 20.978 48.847 32.529 78.514 32.529v0c29.667 0 57.544-11.551 78.514-32.529l224.795-224.8c29.945-29.954 29.945-78.702 0-108.649-14.505-14.521-33.8-22.514-54.327-22.514s-39.824 7.99-54.327 22.514l-99.256 99.238 0.082 0.082-118.632 118.648c-8.056 8.049-12.487 18.755-12.487 30.134 0 11.38 4.43 22.086 12.487 30.135 8.040 8.048 18.737 12.486 30.126 12.486s22.086-4.438 30.126-12.486l190.138-190.124-11.88-11.88-190.138 190.124c-9.746 9.746-26.746 9.746-36.493 0-4.873-4.874-7.564-11.355-7.564-18.255s2.692-13.381 7.564-18.254l217.805-217.969c11.339-11.346 26.401-17.59 42.449-17.59 16.031 0 31.11 6.244 42.45 17.59 23.397 23.4 23.397 61.484 0 84.888l-224.798 224.803c-17.803 17.803-41.464 27.608-66.634 27.608s-48.831-9.804-66.634-27.608c-17.803-17.796-27.616-41.464-27.616-66.634s9.812-48.839 27.616-66.642l197.032-197.040-11.88-11.878-197.032 197.040c-20.986 20.977-32.538 48.856-32.538 78.522s11.552 57.542 32.538 78.513z" horiz-adv-x="437" />
<glyph unicode="&#xe615;" d="M123.112 345.546h157.028c-7.269 16.95-19.92 31.216-36.427 40.611l-8.483 4.824v30.174c0 18.534-15.081 33.604-33.605 33.604-18.525 0-33.605-15.071-33.605-33.604v-30.166l-8.5-4.832c-16.488-9.392-29.14-23.661-36.409-40.61zM251.278 429.557l0.755-16.802v-11.994c26.236-14.932 45.237-41.103 50.406-72.016h-201.625c5.168 30.906 24.169 57.084 50.406 72.017v11.994l0.755 16.802h-151.974v-436.856h403.252v436.856h-151.974zM235.23 110.316h-134.417v16.802h134.417v-16.802h0zM302.438 177.524h-201.625v16.802h201.625v-16.802zM302.438 244.734h-201.625v16.802h201.625v-16.802z" horiz-adv-x="404" />
<glyph unicode="&#xe616;" d="M327.642 190.134v42.006h-117.615v25.203h75.611v168.004h-168.022v-168.004h75.61v-25.203h-117.615v-42.006h-75.609v-168.022h168.022v168.022h-75.61v25.204h218.429v-25.204h-75.609v-168.022h168.020v168.022z" horiz-adv-x="404" />
<glyph unicode="&#xe617;" d="M377.326 418.334l-114.416-114.416v93.25l-123.112-98.139h-95.284v-75.962l-0.066-0.041 0.066-0.048v-75.166h62.285l-106.8-106.802 11.88-11.88 118.682 118.682h0.427l16.063 16.055-0.245 0.188 99.335 99.336v-0.426l16.804 16.802v0.426l126.262 126.262zM246.141 239.203l-97.744-97.752 114.514-89.876v96.235h0.034v108.196z" horiz-adv-x="389" />
<glyph unicode="&#xe618;" d="M151.219 307.74c26.252 0 51.014-6.219 73.165-16.999 13.356 32.374 36.048 89.402 36.048 103.274v64.945h-100.812v-131.75h-16.803v131.75h-100.813v-64.945c0-13.881 22.48-71.138 35.64-103.47 22.249 10.904 47.157 17.195 73.574 17.195zM301.733 153.51c-0.116 1.305-0.264 2.601-0.428 3.899-0.411 3.503-0.936 6.974-1.575 10.402-0.212 1.108-0.376 2.233-0.606 3.33-0.887 4.2-1.968 8.327-3.183 12.387-0.428 1.363-0.902 2.683-1.346 4.021-0.935 2.772-1.935 5.514-3.019 8.221-0.656 1.632-1.312 3.264-2.018 4.874-1.147 2.601-2.396 5.135-3.69 7.654-1.362 2.675-2.822 5.3-4.348 7.875-1.070 1.822-2.134 3.642-3.284 5.408-1.348 2.066-2.74 4.093-4.168 6.088-0.853 1.18-1.723 2.329-2.608 3.477-5.598 7.32-11.798 14.129-18.608 20.305-0.36 0.321-0.706 0.649-1.067 0.976-10.155 9.041-21.529 16.752-33.85 22.832v0.010c-20.15 9.935-42.744 15.668-66.716 15.668-24.169 0-46.928-5.817-67.192-15.9-12.192-6.064-23.43-13.74-33.489-22.717-0.46-0.41-0.919-0.82-1.362-1.238-6.678-6.096-12.766-12.799-18.246-19.994-0.902-1.19-1.822-2.371-2.692-3.585-1.41-1.97-2.773-3.961-4.102-5.998-1.149-1.779-2.232-3.61-3.299-5.446-1.46-2.47-2.855-4.973-4.168-7.533-1.346-2.618-2.642-5.25-3.84-7.959-0.69-1.592-1.345-3.214-2.002-4.832-1.066-2.7-2.067-5.438-2.986-8.206-0.46-1.353-0.952-2.69-1.361-4.052-1.214-4.053-2.297-8.18-3.183-12.372-0.229-1.084-0.377-2.183-0.591-3.274-0.64-3.446-1.181-6.925-1.592-10.452-0.147-1.29-0.311-2.576-0.426-3.88-0.41-4.546-0.69-9.132-0.69-13.784 0-83.518 67.701-151.219 151.22-151.219 83.516 0 151.219 67.7 151.219 151.219-0.002 4.663-0.296 9.25-0.705 13.794zM151.219 38.906c-55.674 0-100.814 45.125-100.814 100.814 0 55.674 45.138 100.805 100.814 100.805 55.673 0 100.812-45.132 100.812-100.805 0-55.688-45.139-100.813-100.812-100.813zM151.219 223.722c-46.321 0-84.011-37.682-84.011-84.002 0-46.329 37.691-84.012 84.011-84.012s84.012 37.68 84.012 84.012c0 46.322-37.691 84.002-84.012 84.002z" horiz-adv-x="303" />
<glyph unicode="&#xe619;" d="M436.63 229.53c0 20.633-16.344 36.55-38.019 36.55h-136.714c8.731 20.256 24.416 62.77 24.416 106.654 0 50.094-25.135 60.604-46.222 60.604-13.060 0-31.962-9.902-31.962-27.813 0-7.564-1.18-74.813-42.268-109.27-43.761-36.706-56.198-46.304-80.171-46.304-27.944 0-77.627-0.614-77.627-0.614l-8.286-0.107v-195.498h91.493c5.939 0 23.776-7.942 39.495-14.93 25.975-11.57 55.41-24.68 75.216-24.68l132.136 0.050c21.514 0 39.018 16.916 39.018 37.707 0 8.466-3.017 16.21-7.904 22.514 15.764 4.514 27.401 18.902 27.401 36.090 0 8.639-3.036 16.515-7.942 22.89 15.522 4.957 26.86 19.339 26.86 36.476 0 8.615-2.954 16.507-7.762 22.923 16.522 4.132 28.846 18.981 28.846 36.76z" horiz-adv-x="437" />
<glyph unicode="&#xe61a;" d="M210.028 433.757c-116.007 0-210.028-94.036-210.028-210.026s94.020-210.028 210.028-210.028c115.991 0 210.025 94.038 210.025 210.028s-94.034 210.026-210.025 210.026zM319.24 215.329h-203.848l81.885-81.886-11.88-11.88-102.166 102.166 102.166 102.175 11.88-11.88-81.885-81.895h203.848v-16.802z" horiz-adv-x="420" />
<glyph unicode="&#xe61b;" d="M235.23 332.944c0 64.961-52.653 117.615-117.615 117.615s-117.614-52.654-117.614-117.615c0-50.036 31.306-92.666 75.347-109.656v-226.387h84.012v58.546l25.464 25.466-25.464 25.466v33.078l42.267 42.267-41.612 41.613c43.975 17.024 75.216 59.621 75.216 109.608zM126.016 316.143h-16.802v67.2h16.802v-67.2z" horiz-adv-x="235" />
<glyph unicode="&#xe61c;" d="M348.514 276.18c-32.062 0-65.584-28.994-104.882-33.112v16.754c0.214 41.152 31.060 83.568 82.568 83.568h9.764c47.418 0 96.152 37.526 101.37 100.813h-16.82c-5.053-52.786-45.353-84.010-84.55-84.010h-9.764c-60.94 0-98.796-51.588-99.337-99.764h-0.034v-0.64c0-0.13-0.032-0.278-0.032-0.409h0.032v-16.311c-39.315 4.12-72.82 33.112-104.898 33.112-34.523-0-121.931-68.506-121.931-202.776 0-67.996 45.878-70.147 51.719-70.147 0.394 0 0.606 0 0.606 0 28.501 0 54.804 13.702 87.686 46.584s46.026 41.514 69.867 41.514c9.5 0 20.921 0 24.662 0 0.787 0 1.362 0 1.362 0 3.739 0 15.16 0 24.66 0 23.844 0 36.986-8.632 69.868-41.514s59.185-46.584 87.688-46.584c0 0 0.212 0 0.606 0 5.841 0 51.734 2.151 51.734 70.147 0 134.27-87.408 202.775-121.946 202.775zM168.071 158.565h-33.605v-33.603h-16.802v33.603h-33.604v16.802h33.604v33.604h16.803v-33.604h33.604v-16.802zM310.839 141.812c-13.93 0-25.202 11.291-25.202 25.206 0 13.93 11.272 25.202 25.202 25.202 13.914 0 25.204-11.272 25.204-25.202 0-13.916-11.289-25.206-25.204-25.206zM378.050 125.010c-13.93 0-25.204 11.29-25.204 25.204 0 13.93 11.271 25.204 25.204 25.204 13.913 0 25.204-11.274 25.204-25.204-0-13.916-11.291-25.204-25.204-25.204z" horiz-adv-x="471" />
<glyph unicode="&#xe61d;" d="M251.958 383.226v50.392h-67.189v-117.58h67.19zM268.755 383.226h167.971v-67.188h-167.971v67.188zM0.001 383.226h167.971v-67.188h-167.971v67.188zM268.755 299.24h-268.754v-285.551h436.726v285.551h-167.971zM268.764 215.255h83.847v-16.796h-83.847v16.796zM260.356 64.080h-16.797v6.783c-0.18 0.346-0.82 1.28-2.593 2.050-11.696 4.873-39.827 14.598-56.608 19.553-13.779 4.348-13.779 16.913-13.779 22.95 0 8.563 3.108 16.264 5.822 22.014 1.673 3.575 3.74 9.974 4.429 15.19l0.656 4.97 3.273 3.806c0.5 0.574 3.076 3.937 4.978 13.37 1.263 6.365 0.804 7.527 0.534 8.235-0.362 0.926-0.615 1.64-0.837 2.362l-0.189 0.649-0.148 0.664c-1.46 6.824 0.492 23.768 1.87 31.331 0.444 2.461-0.196 11.662-6.258 19.413-5.322 6.799-13.623 10.646-24.679 11.434l-10.072-0.010c-10.859-0.78-19.053-4.625-24.368-11.417-6.061-7.76-6.709-16.959-6.257-19.437 1.378-7.564 3.33-24.522 1.862-31.316-0.353-1.515-0.73-2.608-1.172-3.675-0.263-0.707-0.713-1.877 0.558-8.252 1.886-9.414 4.454-12.753 4.954-13.327l3.297-3.822 0.656-5.012c0.673-5.208 2.739-11.565 4.429-15.149 2.756-5.882 4.036-12.934 4.036-22.243 0-6.028 0-18.577-13.368-22.825-17.782-5.264-46.406-15.584-56.74-20.094-0.278-0.115-0.476-0.222-0.624-0.296-0.016-0.163-0.032-0.376-0.032-0.648v-7.25h-16.797c0 2.954 0 5.577 0 7.25 0 5.996 2.108 12.632 10.728 16.33 10.875 4.757 40.057 15.296 58.38 20.717 1.41 0.443 1.656 0.515 1.656 6.816 0 6.766-0.787 11.556-2.436 15.084-2.272 4.806-4.954 12.892-5.897 20.159-2.698 3.116-6.365 9.266-8.71 21.012-2.067 10.336-1.099 14.099 0.263 17.634 0.147 0.377 0.311 0.738 0.41 1.148 0.508 2.387-0.197 14.978-1.986 24.764-1.214 6.7 0.328 20.971 9.564 32.764 5.823 7.464 16.994 16.618 37.022 17.88l11.188 0.008c20.389-1.27 31.544-10.424 37.367-17.888 9.236-11.793 10.769-26.065 9.555-32.764-1.78-9.784-2.494-22.375-1.977-24.802 0.115-0.37 0.262-0.73 0.411-1.108 1.378-3.536 2.329-7.298 0.28-17.634-2.37-11.745-6.028-17.897-8.719-21.012-0.959-7.267-3.642-15.353-5.898-20.159-2.083-4.43-4.216-9.671-4.216-14.862 0-6.298 0.238-6.365 1.738-6.84 17.732-5.235 46.357-15.175 58.487-20.236 8.612-3.7 12.754-11.014 12.754-17.012 0-1.673 0-4.296 0-7.25zM386.334 148.067h-117.579v16.796h117.579v-16.796zM386.334 248.85h-117.564v16.797h117.564v-16.798z" horiz-adv-x="437" />
<glyph unicode="&#xe61e;" d="M352.452 400.153h67.602v-84.019h-67.602v84.019zM352.452 215.32h67.602v-67.208h-67.602v67.208zM0 215.32h67.209v-67.208h-67.209v67.208zM0 299.332h67.209v-67.208h-67.209v67.208zM352.452 299.332h67.602v-67.208h-67.602v67.208zM0 131.31h67.209v-84.002h-67.209v84.002zM352.452 131.31h67.602v-84.002h-67.602v84.002zM0 400.153h67.209v-84.019h-67.209v84.019zM84.011 47.308h251.638v352.844h-251.638v-352.844zM168.022 291.637l117.615-67.915-117.615-67.898v135.813z" horiz-adv-x="420" />
<glyph unicode="&#xe61f;" d="M162.869 282.776c12.93 10.346 29.305 16.565 47.158 16.565 41.762 0 75.608-33.85 75.608-75.61 0-11.314-2.56-22.012-7.008-31.651l115.68-68.841c11.1 20.328 19.050 42.626 22.93 66.329 0.443 2.682 0.813 5.392 1.15 8.098 1.058 8.548 1.663 17.228 1.663 26.065 0 115.999-94.026 210.026-210.018 210.026-0.008 0-0.008 0-0.008 0-54.977 0-104.996-21.134-142.441-55.707l95.284-95.272zM269.926 177.714c-4.88-6.334-10.675-11.913-17.286-16.433l64.615-118.156c27.526 16.385 50.858 38.971 68.39 65.716l-115.719 68.874zM237.774 153.445c-8.597-3.397-17.934-5.324-27.746-5.324-41.76 0-75.61 33.85-75.61 75.61 0 17.852 6.22 34.23 16.572 47.166l-95.234 95.226c-11.715-12.692-21.954-26.771-30.282-42.055-0.034-0.073-0.082-0.148-0.123-0.221-0.674-1.231-1.279-2.51-1.928-3.757-2.47-4.774-4.808-9.624-6.916-14.603-0.32-0.755-0.6-1.526-0.902-2.288-10.034-24.523-15.604-51.334-15.604-79.466 0-115.99 94.028-210.028 210.028-210.028 33.178 0 64.534 7.753 92.429 21.462l-64.683 118.28z" horiz-adv-x="420" />
<glyph unicode="&#xe620;" d="M299.878 131.024c-18.426 7.695-62.204 22.791-89.127 30.738-2.298 0.722-2.66 0.839-2.66 10.397 0 7.894 3.25 15.842 6.415 22.57 3.43 7.31 7.5 19.6 8.959 30.626 4.084 4.74 9.649 14.095 13.224 31.924 3.134 15.709 1.674 21.429-0.409 26.794-0.21 0.567-0.442 1.125-0.607 1.682-0.79 3.683 0.296 22.824 2.986 37.673 1.854 10.19-0.476 31.857-14.506 49.784-8.861 11.33-25.81 25.236-56.774 27.172l-16.982-0.016c-30.438-1.92-47.404-15.826-56.264-27.156-14.028-17.926-16.358-39.594-14.505-49.775 2.708-14.858 3.775-33.998 3.002-37.608-0.164-0.63-0.394-1.19-0.624-1.756-2.067-5.365-3.543-11.084-0.394-26.794 3.561-17.828 9.123-27.181 13.225-31.923 1.444-11.026 5.513-23.317 8.959-30.626 2.511-5.348 3.692-12.625 3.692-22.914 0-9.558-0.362-9.673-2.51-10.353-27.844-8.219-72.163-24.235-88.686-31.469-13.095-5.623-16.294-15.705-16.294-24.802 0-9.099 0-36.058 0-42.006 0-5.95 3.528-16.105 16.294-16.105 9.812 0 88.376 0 124.064 0 10.698 0 17.59 0 17.59 0h3.068c0 0 7.006 0 17.852 0 35.834 0 114.284 0 124.079 0 12.75 0 16.293 10.156 16.293 16.105 0 5.948 0 32.906 0 42.006 0 9.098-6.284 20.214-19.363 25.834zM417.034 284.22l-11.88 11.88-43.908-43.918-43.928 43.918-11.878-11.88 43.909-43.917-43.909-43.918 11.878-11.88 43.909 43.908 43.926-43.908 11.88 11.88-43.909 43.917z" horiz-adv-x="417" />
<glyph unicode="&#xe621;" d="M380.226 114.473h-329.834v235.16h-16.797v-251.957h403.132v16.798h-16.796zM346.63 80.878h-329.832v235.16h-16.797v-251.958h403.132v16.798h-16.796zM268.755 290.842c-18.529 0-33.594-15.066-33.594-33.586 0-18.528 15.066-33.601 33.594-33.601 18.527 0 33.596 15.073 33.596 33.601-0.002 18.52-15.068 33.586-33.596 33.586zM67.189 383.226v-251.957h403.132v251.957h-403.132zM159.573 164.864h-50.392v16.796h50.392v-16.796zM159.573 332.31h-50.392v16.798h50.392v-16.798zM268.755 206.856c-27.828 0-50.391 22.563-50.391 50.399 0 27.82 22.563 50.384 50.391 50.384s50.39-22.564 50.39-50.384c0-27.837-22.563-50.399-50.39-50.399zM428.328 164.864h-50.392v16.796h50.392v-16.796zM428.328 332.31h-50.392v16.798h50.392v-16.798z" horiz-adv-x="471" />
<glyph unicode="&#xe622;" d="M299.88 131.024c-18.428 7.695-62.204 22.791-89.132 30.738-2.297 0.722-2.658 0.839-2.658 10.397 0 7.894 3.25 15.842 6.416 22.57 3.43 7.31 7.5 19.6 8.959 30.626 4.086 4.74 9.649 14.095 13.226 31.924 3.132 15.709 1.673 21.429-0.41 26.794-0.213 0.567-0.442 1.125-0.607 1.682-0.787 3.683 0.296 22.824 2.986 37.673 1.852 10.19-0.476 31.857-14.506 49.784-8.862 11.33-25.81 25.236-56.774 27.172l-16.982-0.016c-30.438-1.92-47.404-15.826-56.264-27.156-14.028-17.926-16.358-39.594-14.505-49.775 2.708-14.858 3.775-33.998 3.004-37.608-0.165-0.63-0.394-1.19-0.624-1.756-2.067-5.365-3.544-11.084-0.394-26.794 3.561-17.828 9.124-27.181 13.225-31.923 1.444-11.026 5.513-23.317 8.959-30.626 2.51-5.348 3.692-12.625 3.692-22.914 0-9.558-0.362-9.673-2.51-10.352-27.844-8.221-72.164-24.236-88.686-31.471-13.078-5.623-16.294-15.705-16.294-24.802 0-9.099 0-36.058 0-42.006 0-5.95 3.544-16.105 16.294-16.105 9.812 0 88.376 0 124.079 0 10.682 0 17.574 0 17.574 0h3.068c0 0 7.024 0 17.869 0 35.82 0 114.268 0 124.063 0 12.766 0 16.293 10.156 16.293 16.105 0 5.948 0 32.906 0 42.006 0 9.098-6.269 20.214-19.361 25.834zM369.646 248.704v67.036h-16.802v-67.036h-67.027v-16.802h67.028v-67.037h16.802v67.036h67.044v16.802z" horiz-adv-x="437" />
<glyph unicode="&#xe623;" d="M184.905 299.283h117.591l50.406 59.234-50.406 58.38h-117.591v33.661h-16.803v-33.661h-151.299v-117.615h151.3v-16.744h-117.698l-50.406-58.374 50.406-59.24h117.697v-168.023h16.803v168.023h151.196v117.614h-151.196v16.744zM134.376 366.548h-84.011v16.802h84.011v-16.802zM218.428 248.844h84.012v-16.8h-84.012v16.8z" horiz-adv-x="353" />
<glyph unicode="&#xe624;" d="M0 223.762c0-116.021 94.040-210.055 210.046-210.055 116.014 0 210.054 94.034 210.054 210.054 0 116.005-94.039 210.054-210.054 210.054-116.004-0-210.046-94.049-210.046-210.054zM218.45 332.99v-203.875l81.902 81.897 11.88-11.88-102.186-102.178-102.18 102.178 11.882 11.88 81.896-81.897v203.875h16.806z" horiz-adv-x="420" />
<glyph unicode="&#xe625;" d="M264.534 275.2c-28.16 0-51.2-23.040-51.2-51.2s23.040-51.2 51.2-51.2c28.16 0 51.2 23.040 51.2 51.2s-23.040 51.2-51.2 51.2zM264.534 189.866c-18.774 0-34.133 15.36-34.133 34.134s15.36 34.134 34.133 34.134c18.774 0 34.134-15.36 34.134-34.134s-15.36-34.134-34.134-34.134zM273.067 224c0-4.713-3.82-8.534-8.534-8.534s-8.534 3.82-8.534 8.534c0 4.713 3.82 8.534 8.534 8.534s8.534-3.821 8.534-8.534zM76.8 428.8v-409.6h384v409.6h-384zM264.534 61.866c-89.6 0-162.133 72.534-162.133 162.134s72.534 162.134 162.133 162.134c89.6 0 162.134-72.534 162.134-162.134s-72.534-162.134-162.134-162.134zM0 428.8h59.733v-409.6h-59.733v409.6z" horiz-adv-x="461" />
<glyph unicode="&#xe626;" d="M359.253 358.827l47.786 47.786v-39.253h17.067v68.266h-68.267v-17.067h39.253l-47.786-47.786c-43.52 40.96-100.694 65.707-164.694 65.707-69.974 0-136.534-30.72-182.613-82.774l12.8-11.094c1.707 1.707 3.413 3.413 5.12 5.12l152.747-153.6-57.173-57.173h-42.666l-59.733-59.733h54.614v-54.613l59.733 59.733v42.666l57.173 57.173 152.747-152.746c-1.707-1.707-3.413-3.413-5.12-5.12l11.094-12.8c52.906 46.080 82.774 112.64 82.774 182.613 0.853 64-23.894 122.026-64.853 164.693zM29.866 359.68c40.96 38.4 95.573 59.733 152.746 59.733 58.88 0 112.64-23.040 152.747-59.733l-152.746-152.747-152.746 152.746zM348.16 41.387l-153.6 152.747 152.746 152.746c37.546-40.106 59.733-93.866 59.733-152.746 0.853-56.32-21.334-110.933-58.88-152.746z" horiz-adv-x="425" />
<glyph unicode="&#xe627;" d="M152.746 212.906v0l8.534-5.974 26.453-17.067v93.014c44.374 0 121.173-12.8 155.306-87.894 14.507-42.666 32.426-55.466 32.426-55.466v62.293c0 82.774-44.373 153.6-115.2 185.173-0.853 0.853-2.56 0.853-3.413 1.707h221.014v-392.534h-392.534v262.827l67.413-46.080zM170.667 452.693v-64c0 0 48.64-3.413 82.773-17.066 68.267-30.72 104.96-98.134 104.96-169.814-39.254 87.040-130.56 98.134-172.374 98.134-5.974 0-11.094 0-15.36-0.854v-76.8l-68.266 46.080-17.067 11.094-85.334 57.173 170.666 116.053z" horiz-adv-x="478" />
<glyph unicode="&#xe628;" d="M349.521 203.529l-96.543-96.543-132.746 132.746 96.542 96.542 132.746-132.746zM108.374 227.413l-103.254-103.254c-6.827-6.827-6.827-17.067 0-23.894l108.374-108.374c3.413-3.413 7.68-5.12 11.947-5.12s8.533 1.707 11.947 5.12l103.254 103.254-132.267 132.267zM89.6 113.067c-3.413-3.413-8.534-3.413-11.947 0s-3.413 8.534 0 11.947c3.413 3.413 8.534 3.413 11.947 0s3.413-8.534 0-11.947zM114.347 148.906c-3.413 3.413-3.413 8.534 0 11.947s8.534 3.413 11.947 0c3.413-3.413 3.413-8.534 0-11.947s-8.534-3.413-11.947 0zM138.24 64.426c-3.413-3.413-8.534-3.413-11.947 0s-3.413 8.534 0 11.947c3.414 3.413 8.533 3.413 11.947 0s3.413-8.534 0-11.947zM162.133 101.12c-3.413 3.413-3.413 8.534 0 11.947s8.534 3.413 11.946 0c3.413-3.413 3.413-8.534 0-11.947s-8.534-3.413-11.947 0zM469.334 347.733l-108.373 108.373c-3.413 3.413-7.68 5.12-11.947 5.12s-8.534-1.706-11.947-5.12l-108.374-108.373 133.12-132.267 107.52 108.374c6.827 5.973 6.827 17.066 0 23.893zM307.2 329.813c-3.413-3.413-8.534-3.413-11.947 0s-3.413 8.534 0 11.947c3.413 3.413 8.534 3.413 11.947 0s3.413-8.534 0-11.947zM331.094 366.507c-3.413 3.413-3.413 8.534 0 11.946s8.534 3.413 11.947 0c3.413-3.413 3.413-8.534 0-11.946s-8.534-3.413-11.947 0zM354.986 282.026c-3.413-3.413-8.534-3.413-11.947 0s-3.413 8.534 0 11.947c3.413 3.413 8.534 3.413 11.947 0s3.413-8.534 0-11.947zM391.68 317.866c-3.413-3.413-8.534-3.413-11.947 0s-3.413 8.534 0 11.947c3.413 3.413 8.534 3.413 11.947 0s3.413-8.534 0-11.947z" horiz-adv-x="475" />
<glyph unicode="&#xe629;" d="M358.4 113.067h-17.067v-25.6c0-23.894 18.774-42.666 42.666-42.666s42.666 18.774 42.666 42.666v25.6h-68.267zM51.2 113.067h-17.067v-25.6c0-23.894 18.773-42.666 42.666-42.666s42.666 18.774 42.666 42.666v25.6h-68.266zM460.8 300.8h-58.88l-14.507 68.267c-5.974 22.186-23.040 34.133-46.080 34.133h-221.867c-23.894 0-37.547-11.946-44.374-34.133l-15.36-68.267h-59.733v-17.066h55.467v-0.854c-26.453-1.707-46.934-23.893-46.934-51.2v-101.546h443.733v101.546c0 26.454-20.48 48.64-46.080 51.2v0.853h54.613v17.066zM76.8 300.8v0l14.507 63.147c5.12 15.36 12.8 22.187 27.306 22.187h221.867c16.214 0 25.6-6.827 29.866-21.334l14.507-67.413 2.56-13.654v-0.853h-315.733l5.12 17.92zM93.867 164.267c-18.773 0-34.133 15.36-34.133 34.133s15.36 34.133 34.133 34.133 34.133-15.36 34.133-34.133-15.36-34.134-34.133-34.134zM366.933 164.267c-18.774 0-34.134 15.36-34.134 34.133s15.36 34.133 34.134 34.133 34.134-15.36 34.134-34.133-15.36-34.134-34.134-34.134z" horiz-adv-x="461" />
<glyph unicode="&#xe62a;" d="M432.64 304.214l-96.427 114.346-96.427-114.346zM112.64 423.68l15.36-17.067 12.8-15.36 1.707-1.707 74.24-85.334 101.546 119.466zM0 287.147l208.214-262.827v262.827h-157.013zM378.88 287.147h-153.6v-262.827l208.214 262.827zM193.707 304.214l-57.173 65.707-40.106 46.933-95.573-112.64h44.373z" horiz-adv-x="434" />
<glyph unicode="&#xe62b;" d="M213.333 437.334c-117.76 0-213.333-95.574-213.333-213.334s95.573-213.333 213.333-213.333 213.333 95.573 213.333 213.333c0 117.76-95.574 213.333-213.333 213.333zM230.4 210.346l27.306-80.214h-88.746l27.306 79.36 4.267 13.654-12.8 6.827c-15.36 9.387-25.6 26.454-25.6 45.226 0 28.16 23.040 51.2 51.2 51.2s51.2-23.040 51.2-51.2c0-18.774-10.24-35.84-26.453-44.374l-12.8-6.826 5.12-13.654z" horiz-adv-x="427" />
<glyph unicode="&#xe62c;" d="M214.186 319.573l-172.374-172.373c-22.186-22.187-24.747-58.026-5.974-82.774l-35.84-35.84 11.947-11.947 35.84 35.84c11.093-8.534 24.746-12.8 38.4-12.8 16.213 0 32.427 5.974 44.374 18.774l172.374 172.374-88.746 88.746zM395.094 410.88c-13.654 13.654-32.426 20.48-50.346 20.48s-36.694-6.827-50.346-20.48l-61.44-61.44-34.987 34.987-11.946-11.947 168.106-168.107 11.947 11.947-33.28 33.28 61.44 61.44c28.16 27.307 28.16 71.68 0.853 99.84z" horiz-adv-x="416" />
<glyph unicode="&#xe62d;" d="M248.32 197.546c57.173 57.173 57.173 148.48 0 205.654-28.16 28.16-65.707 42.666-102.4 42.666-37.547 0-75.094-13.654-103.254-42.666-57.173-57.173-57.173-148.48 0-205.654 26.453-26.454 59.733-40.106 93.867-41.813v-68.267h-68.266v-17.067h68.266v-68.267h17.066v68.267h68.267v17.067h-68.267v68.267c34.133 1.707 68.267 16.214 94.72 41.813z" horiz-adv-x="291" />
<glyph unicode="&#xe62e;" d="M392.534 70.4v307.2h-51.2v-145.066h-169.814v145.066h-52.053v-307.2h52.053v145.067h169.814v-145.067zM102.4 113.067v221.866h-50.346v-102.4h-52.053v-17.067h52.053v-102.4zM460.8 232.534v102.4h-51.2v-221.866h51.2v102.4h51.2v17.066z" />
<glyph unicode="&#xe62f;" d="M455.68 247.040l-11.947-12.8-29.866 30.72-121.173-121.173 29.866-29.866-8.534-8.534 11.947-11.947 141.654 140.8zM115.2 304.214l8.534 8.534 30.72-29.867 120.32 120.32-30.72 30.72 12.8 11.947-12.8 11.946-11.947-11.946-128.853-129.707zM280.747 155.733l120.32 121.173-114.346 114.346-120.32-121.173 51.2-50.346-217.6-217.6 11.947-11.947 217.6 217.6z" horiz-adv-x="468" />
<glyph unicode="&#xe630;" d="M426.666 249.6c0 117.76-95.574 213.333-213.333 213.333s-213.333-95.573-213.333-213.333v-87.040h0.854c0-2.56 0-5.12 0-6.827 0-56.32 45.227-102.4 101.546-102.4v0 204.8h-0.853c-35.84 0-66.56-17.92-84.48-46.080v37.547c0 108.374 87.894 196.266 196.267 196.266s196.267-87.893 196.267-196.266v-37.547c-17.92 27.306-49.493 46.080-84.48 46.080h-0.853v-204.8h0.853c8.534 0 16.214 0.853 24.747 3.413-25.6-24.747-57.173-41.813-93.013-50.346v29.866h-86.186v-51.2h85.333v3.413c54.613 11.094 101.546 42.666 132.267 87.040 23.040 18.774 38.4 47.786 38.4 80.214 0 2.56 0 5.12 0 6.827v0 87.040z" horiz-adv-x="427" />
<glyph unicode="&#xe631;" d="M494.933 215.466v17.066h-59.733c-1.707 46.080-19.627 87.040-48.64 119.467l42.666 42.666-11.947 11.946-42.666-42.666c-31.574 29.014-72.534 46.934-117.76 48.64v58.88h-17.066v-58.88c-45.227-1.707-87.040-20.48-117.76-48.64l-42.666 42.666-11.947-11.946 42.666-42.666c-29.867-32.427-48.64-73.387-50.346-119.467h-59.733v-17.066h59.733c2.56-45.226 20.48-86.187 48.64-116.906l-42.666-42.666 11.947-11.947 42.666 42.666c31.574-29.014 72.533-46.933 117.76-48.64v-61.44h17.066v60.587c45.226 1.707 87.040 20.48 117.76 48.64l42.666-42.666 11.947 11.947-42.666 42.666c28.16 31.574 46.933 71.68 48.64 116.906h61.44zM418.134 232.534h-102.4c-1.707 12.8-6.827 24.746-14.507 34.134l72.534 72.534c25.6-28.16 41.813-65.707 44.373-106.667zM247.466 172.8c-28.16 0-51.2 23.040-51.2 51.2s23.040 51.2 51.2 51.2c28.16 0 51.2-23.040 51.2-51.2s-23.040-51.2-51.2-51.2zM361.813 351.147l-73.387-73.387c-9.387 6.827-20.48 11.947-32.426 13.654v104.106c40.96-2.56 77.654-18.774 105.813-44.373zM238.934 395.52v-103.253c-11.946-1.707-23.040-5.974-32.427-13.654l-73.387 73.387c28.16 24.746 64.853 40.96 105.814 43.52zM121.174 339.2l72.533-72.534c-7.68-9.387-12.8-21.334-14.506-34.133h-102.4c2.56 40.96 18.773 78.506 44.374 106.667zM77.653 215.466h102.4c1.707-11.947 5.974-23.040 13.654-32.426l-71.68-71.68c-26.453 27.307-42.666 64-44.374 104.106zM133.12 98.56l71.68 71.68c9.387-7.68 21.334-12.8 34.133-14.507v-101.546c-40.96 2.56-77.653 18.774-105.814 44.373zM256 55.040v101.546c12.8 1.707 24.747 6.827 34.134 14.507l71.68-71.68c-28.16-26.454-64.853-42.666-105.814-44.373zM373.76 110.507l-71.68 71.68c6.827 9.387 11.947 20.48 13.654 32.426h102.4c-2.56-39.253-18.774-75.947-44.373-104.106z" horiz-adv-x="495" />
<glyph unicode="&#xe632;" d="M255.147 420.267h43.52v17.066h-298.666v-17.066h42.666zM42.666 27.733h-42.666v-17.067h298.666v17.067h-43.52zM255.147 318.72v84.48h-212.48v-84.48c0-28.16 11.093-62.293 86.186-98.987-64-30.72-86.186-58.026-86.186-103.253v-71.68h212.48v71.68c0 45.226-22.186 72.534-86.186 104.106 75.094 35.84 86.186 69.974 86.186 98.134z" horiz-adv-x="299" />
<glyph unicode="&#xe633;" d="M136.534 480c-59.733-69.12-136.534-152.746-136.534-267.094 0-107.52 79.36-135.68 128-151.040v-93.866h17.066v93.866c48.64 15.36 128 43.52 128 151.040 0 114.346-76.8 197.974-136.534 267.094zM128 79.786v157.867l-56.32 56.32 11.947 11.947 44.373-44.374v81.92h17.066v-173.226l40.96 40.96 11.947-11.947-52.906-52.906v-66.56h-17.066z" horiz-adv-x="273" />
<glyph unicode="&#xe634;" d="M-0.113 28.229l222.651 222.651 12.068-12.068-222.651-222.652-12.068 12.068zM159.573 312.746h68.266v-17.066h-68.267v17.066zM347.307 312.746h68.267v-17.066h-68.267v17.066zM279.040 244.48h17.067v-68.266h-17.067v68.267zM279.040 432.214h17.067v-68.267h-17.067v68.267zM383.854 388.529l-48.278-48.264-12.066 12.070 48.278 48.264 12.066-12.070zM371.935 207.325l-48.278 48.264 12.066 12.070 48.278-48.264-12.066-12.070zM239.773 340.148l-48.278 48.264 12.066 12.069 48.278-48.264-12.066-12.069z" horiz-adv-x="416" />
<glyph unicode="&#xe635;" d="M236.374 388.693l3.413-16.213 130.56 29.866-128.853-129.707c-25.6 23.040-58.88 36.693-96.427 36.693-80.213 0-145.066-64.853-145.066-145.066s64.853-145.066 145.066-145.066c80.213 0 145.066 64.853 145.066 145.067 0 36.693-13.654 70.827-36.694 96.427l129.706 129.707-29.866-130.56 16.214-4.266 40.106 173.227-173.226-40.107z" horiz-adv-x="410" />
<glyph unicode="&#xe636;" d="M119.466 264.106l-119.466-48.64v-209.067l119.466 48.64zM256 202.666l-51.2 29.013v104.107c29.013 4.267 51.2 29.013 51.2 58.88 0 33.28-26.453 59.733-59.733 59.733s-59.733-26.453-59.733-59.733c0-29.867 22.186-54.613 51.2-58.88v-93.867l-51.2 29.013v-209.067l119.466-68.267v209.066zM273.067 211.2v-209.066l119.466 59.733v209.066z" horiz-adv-x="393" />
<glyph unicode="&#xe637;" d="M325.12 212.906v0l-8.534-5.974-26.454-17.067v93.014c-44.374 0-121.173-12.8-155.306-87.894-14.507-43.52-32.427-56.32-32.427-56.32v62.293c0 82.774 44.374 153.6 115.2 185.173 0.853 0.853 2.56 0.853 3.413 1.707h-221.013v-392.534h392.534v263.68l-67.413-46.080zM307.2 452.693v-64c0 0-48.64-3.413-82.774-17.066-68.267-30.72-104.96-98.987-104.96-169.814 39.253 87.040 130.56 98.134 172.373 98.134 5.974 0 11.094 0 15.36-0.854v-76.8l68.267 46.080 17.067 11.094 85.334 58.026-170.666 115.2z" horiz-adv-x="478" />
<glyph unicode="&#xe638;" d="M357.546 242.774v0l-166.4 167.254-3.413-2.56v4.267c0 28.16-23.040 51.2-51.2 51.2s-51.2-23.040-51.2-51.2v-106.666l-70.826-70.827c-19.627-19.627-19.627-51.2 0-70.827l96.427-96.427c9.386-10.24 23.040-14.507 35.84-14.507s25.6 5.12 35.84 14.507l122.027 122.88h104.96l-52.053 52.906zM170.667 390.4l-68.266-68.266v89.6c0 18.773 15.36 34.133 34.133 34.133s34.133-15.36 34.133-34.133v-21.334zM451.413 48.214c-5.12 46.080-54.613 107.52-54.613 107.52s-50.346-62.293-54.613-108.373c0-1.707 0-4.267 0-6.827 0-30.72 24.747-55.466 55.466-55.466s55.466 24.747 55.466 55.466c-0.853 2.56-0.853 5.12-1.707 7.68z" horiz-adv-x="453" />
<glyph unicode="&#xe639;" d="M0 300.8v-260.267c0-25.6 21.334-46.933 46.934-46.933h145.066c25.6 0 46.934 21.334 46.934 46.933v260.267h-238.934zM187.733 454.4h-136.534v-136.534h136.534v136.534zM102.4 369.067h-17.067v42.666h17.067v-42.666zM153.6 369.067h-17.066v42.666h17.066v-42.666z" horiz-adv-x="239" />
<glyph unicode="&#xe63a;" d="M0 121.6h426.666v-102.4h-426.666v102.4zM0 428.8v-250.026l136.534 143.36 120.32-120.32 59.733 51.2 110.080-113.493v289.28h-426.666zM315.733 292.267c-23.894 0-42.666 18.774-42.666 42.666s18.774 42.666 42.666 42.666c23.894 0 42.666-18.773 42.666-42.666s-18.774-42.666-42.666-42.666zM403.627 138.666l-88.747 90.454-59.733-51.2-118.613 119.466-136.534-143.36v-15.36h17.067z" horiz-adv-x="427" />
<glyph unicode="&#xe63b;" d="M256 370.774c0 2.56 0 4.266 0 6.827 0 42.666-34.133 76.8-76.8 76.8s-76.8-34.133-76.8-76.8c0-15.36 4.266-29.014 11.947-40.96 51.2 31.573 107.52 35.84 141.654 34.134zM444.587 241.066h-9.387c-12.8 33.28-38.4 61.44-72.534 81.92 0 45.226 4.267 55.466 13.654 84.48-34.986-5.12-69.974-26.454-87.894-57.173-1.707 0-2.56 0-4.267 0.853v0c-0.853 0-109.226 22.187-186.88-46.080-19.626-17.066-35.84-36.694-45.227-59.733-23.040 8.534-35.84 21.334-35.84 37.547 0 17.92 14.507 34.133 27.306 38.4l-5.12 16.214c-20.48-7.68-38.4-31.574-38.4-54.613 0-13.654 5.973-39.254 46.934-54.613-3.413-11.094-4.267-22.187-4.267-34.133 0-42.666 21.334-81.92 55.466-110.933l-10.24-29.866c-6.826-19.627 3.413-41.813 23.894-48.64l23.893-8.534c4.267-1.707 8.534-2.56 12.8-2.56 16.214 0 30.72 10.24 36.694 25.6l6.827 19.627c17.066-3.413 34.133-5.974 52.906-5.974 11.947 0 23.894 0.853 34.986 2.56l10.24-21.334c6.827-13.654 20.48-21.334 34.986-21.334 5.974 0 11.094 0.853 17.067 3.413l22.187 11.094c18.774 9.387 27.306 32.426 17.92 51.2l-5.974 12.8c23.040 15.36 40.96 34.986 53.76 58.026h17.067c23.040 0 41.813 18.774 41.813 41.813v27.307c-2.56 23.894-21.334 42.666-44.373 42.666zM354.134 206.933c-11.947 0-21.334 9.387-21.334 21.334s9.387 21.334 21.334 21.334c11.947 0 21.334-9.387 21.334-21.334s-9.387-21.334-21.334-21.334z" horiz-adv-x="487" />
<glyph unicode="&#xe63c;" d="M230.4 307.626c-29.013 0-51.2-13.654-51.2-25.6s22.186-25.6 51.2-25.6 51.2 13.654 51.2 25.6c0 11.947-22.187 25.6-51.2 25.6zM366.933 307.626c29.014 0 51.2 13.654 51.2 25.6s-22.187 25.6-51.2 25.6c-29.014 0-51.2-13.654-51.2-25.6s22.187-25.6 51.2-25.6zM230.4 358.827c29.013 0 51.2 13.654 51.2 25.6s-22.187 25.6-51.2 25.6-51.2-13.654-51.2-25.6 22.186-25.6 51.2-25.6zM102.4 307.626c29.013 0 51.2 13.654 51.2 25.6s-22.186 25.6-51.2 25.6c-29.014 0-51.2-13.654-51.2-25.6s22.186-25.6 51.2-25.6zM238.934 194.986v-157.014l221.867 95.573v157.014zM0 133.546l221.867-95.574v157.014l-221.867 96.427zM429.226 315.307c0 0 0 0 0 0v0c-11.094-14.507-34.986-23.894-62.293-23.894-37.546 0-68.267 18.774-68.267 42.666 0 11.094 6.827 21.334 18.774 29.013l-21.334 9.387c0 0 0 0 0 0v0c-8.534-17.92-34.134-30.72-65.707-30.72-30.72 0-57.173 12.8-65.707 30.72l-17.066-6.827c13.654-7.68 22.186-18.774 22.186-31.574 0-23.893-30.72-42.666-68.266-42.666-29.014 0-53.76 11.094-63.147 27.307l-29.014-12.8 221.013-95.573 222.72 95.573-23.894 9.387zM230.4 239.36c-37.547 0-68.266 18.774-68.266 42.666s30.72 42.666 68.267 42.666c37.546 0 68.267-18.774 68.267-42.666 0-23.040-30.72-42.666-68.267-42.666z" horiz-adv-x="461" />
<glyph unicode="&#xe63d;" d="M327.68 182.187l-17.92-125.44 122.026 18.774-47.786 48.64c16.214 29.866 25.6 63.147 25.6 99.84 0 113.494-91.307 204.8-204.8 204.8v-17.067c103.253 0 187.733-84.48 187.733-187.733 0-31.574-7.68-60.587-21.334-87.040l-43.52 45.226zM17.067 224c0 45.226 16.213 86.187 42.666 118.613l52.053-52.906 17.92 125.44-122.026-19.627 39.254-40.96c-29.014-34.987-46.934-81.067-46.934-130.56 0-113.493 91.306-204.8 204.8-204.8v17.067c-103.254 0-187.733 84.48-187.733 187.733z" horiz-adv-x="431" />
<glyph unicode="&#xe63e;" d="M170.667 480c-53.76-33.28-85.334-98.134-85.334-146.774 0-10.24 0-29.014 0-52.053 0-30.72 0-69.12 0-104.96v-105.814h170.666v106.666c0 35.84 0 74.24 0 104.96 0 23.040 0 40.96 0 52.053 0 47.786-31.573 112.64-85.334 145.92zM170.667 283.733c-18.773 0-34.133 15.36-34.133 34.133s15.36 34.134 34.133 34.134 34.133-15.36 34.133-34.134-15.36-34.133-34.133-34.133zM162.133 53.334h17.066v-85.334h-17.066v85.334zM204.8 53.334h17.066v-51.2h-17.066v51.2zM119.466 53.334h17.066v-51.2h-17.067v51.2zM273.067 155.733v-85.334h68.267zM68.266 70.4v85.334l-68.266-85.334z" horiz-adv-x="342" />
<glyph unicode="&#xe63f;" d="M409.6 184.747l68.267 6.827v64l-68.267 6.827c-4.267 20.48-12.8 39.253-23.040 55.466l38.4 51.2-39.253 39.254-51.2-38.4c-16.214 10.24-34.986 18.773-54.613 23.040l-7.68 68.267h-64l-7.68-68.267c-19.626-4.267-37.547-11.947-53.76-22.187l-52.906 37.547-39.254-39.254 37.547-52.906c-10.24-16.214-17.92-34.134-22.186-53.76l-68.266-7.68v-64l68.266-7.68c4.266-19.627 12.8-38.4 23.040-55.466l-38.4-51.2 39.253-39.254 51.2 38.4c16.214-10.24 34.987-18.774 54.613-23.040l8.534-68.267h64l8.534 68.267c19.627 4.267 37.546 11.947 53.76 22.187l52.053-37.546 39.253 39.254-38.4 53.76c10.24 17.067 17.92 34.986 22.187 54.613z" horiz-adv-x="478" />
<glyph unicode="&#xe640;" d="M162.133 437.334l-162.133-30.72c0 0 0-194.56 0-229.546 0-55.466 48.64-127.147 162.133-166.4 113.494 39.254 162.133 110.933 162.133 166.4 0 34.986 0 229.547 0 229.547l-162.133 30.72zM226.987 193.28l-11.946-11.947-51.2 51.2-51.2-51.2-11.947 11.947 51.2 51.2-51.2 51.2 11.947 11.947 51.2-51.2 51.2 51.2 11.947-11.947-51.2-51.2 51.2-51.2z" horiz-adv-x="325" />
<glyph unicode="&#xe641;" d="M204.8 428.8c-113.493 0-204.8-91.307-204.8-204.8s91.306-204.8 204.8-204.8c113.493 0 204.8 91.306 204.8 204.8s-91.307 204.8-204.8 204.8zM273.067 292.267c14.507 0 25.6-11.094 25.6-25.6s-11.947-25.6-25.6-25.6c-14.507 0-25.6 11.094-25.6 25.6s11.946 25.6 25.6 25.6zM136.534 292.267c14.506 0 25.6-11.094 25.6-25.6s-11.946-25.6-25.6-25.6c-14.507 0-25.6 11.094-25.6 25.6s11.947 25.6 25.6 25.6zM314.88 164.267c-21.334-41.813-63.147-68.267-110.080-68.267s-89.6 26.454-110.933 68.267c-1.707 4.267 0 9.387 3.413 11.094 4.266 1.707 9.386 0 11.094-3.413 19.627-36.693 55.467-58.88 96.426-58.88 40.106 0 76.8 22.187 95.574 58.88 1.707 4.267 7.68 5.974 11.094 3.413 4.267-1.707 5.974-6.827 3.413-11.094z" horiz-adv-x="410" />
<glyph unicode="&#xe642;" d="M229.547 377.6h-58.88v-58.88h25.6v-40.96c0-9.387 0-15.36-9.387-24.746l-58.88-58.027v238.080l11.947-19.627 14.506 8.534-34.987 58.026-34.987-58.026 14.507-8.534 11.947 19.627v-308.053l-53.76 53.76c-9.386 9.387-14.507 17.067-14.507 23.040v40.106c14.507 3.413 25.6 17.066 25.6 33.28 0 18.773-15.36 34.133-34.133 34.133s-34.133-15.36-34.133-34.133c0-16.214 11.094-29.014 25.6-33.28v-40.106c0-14.507 10.24-26.454 19.627-34.986l66.56-66.56v-47.786c-19.626-4.267-34.133-21.334-34.133-41.813 0-23.894 18.773-42.666 42.666-42.666s42.666 18.774 42.666 42.666c0 20.48-14.506 37.546-34.133 41.813v117.76l70.826 70.827c14.506 14.506 14.506 26.454 14.506 36.694v40.96h16.214v58.88z" horiz-adv-x="230" />
<glyph unicode="&#xe643;" d="M426.666 322.134l-15.36-15.36c-33.28 29.014-75.947 45.226-120.32 45.226-29.866 0-59.733-7.68-85.334-21.333l64.853 64.853c5.12-3.413 11.094-5.12 17.067-5.12 8.534 0 17.067 3.413 23.894 10.24 13.654 13.654 13.654 34.987 0 48.64-6.827 6.827-15.36 10.24-23.894 10.24s-17.067-3.413-23.894-10.24c-11.094-11.946-12.8-29.013-5.12-41.813l-81.92-81.92-15.36 15.36-41.814-41.814 15.36-15.36-83.626-83.627c-5.12 3.413-11.093 5.12-17.067 5.12-8.534 0-17.067-3.413-23.893-10.24-13.653-13.654-13.653-34.986 0-48.64 6.826-5.974 15.36-9.387 23.893-9.387s17.067 3.413 23.894 10.24c11.094 11.094 12.8 28.16 5.12 40.96l64.853 64.853c-34.133-65.707-26.453-147.627 23.893-205.654l-15.36-15.36 42.666-41.813 41.814 41.813-42.667 41.813-14.506-14.507c-49.493 58.026-52.053 141.654-10.24 203.094l6.827-6.827 42.667 41.814-6.827 6.827c28.16 19.626 60.587 29.866 94.72 29.866 40.106 0 77.654-14.506 108.374-40.106l-15.36-14.506 42.666-41.814 41.813 41.814-41.813 42.666z" horiz-adv-x="469" />
<glyph unicode="&#xe644;" d="M253.44 453.546v0l-89.6-89.6c-54.614-54.613-56.32-141.654-5.974-198.827l-72.534-72.534-72.534 72.534-12.8-13.654 157.013-157.014 11.947 11.947-72.534 72.534 72.534 72.534c57.173-50.346 144.214-48.64 198.827 5.974l90.454 90.454-204.8 205.654zM138.24 247.893c-3.413 36.694 8.534 74.24 36.694 102.4l78.506 78.507 180.906-180.906h-296.106z" horiz-adv-x="458" />
<glyph unicode="&#xe680;" d="M344.48 390.235c0 21.25-17.218 38.485-38.485 38.485h-264.229c-21.242 0-38.486-17.235-38.486-38.485v-29.755h341.2v29.755zM399.892 343.42h-396.612v-311.311c0-7.089 5.74-12.829 12.828-12.829h383.783c7.081 0 12.828 5.74 12.828 12.829v298.483c0.001 7.089-5.747 12.828-12.827 12.828zM318.899 147.239c-18.851 0-34.129 15.27-34.129 34.104 0 18.85 15.277 34.12 34.129 34.12 18.843 0 34.111-15.27 34.111-34.12 0-18.835-15.269-34.104-34.111-34.104z" horiz-adv-x="416" />
<glyph unicode="&#xe681;" d="M224 437.25c-117.77 0-213.25-95.479-213.25-213.25 0-117.77 95.48-213.25 213.25-213.25s213.25 95.48 213.25 213.25c0 117.771-95.48 213.25-213.25 213.25zM275.18 123.356l-58.002 57.994h-69.948v85.3h69.948l58.002 58.002v-201.296z" horiz-adv-x="448" />
<glyph unicode="&#xe682;" d="M240 454.31c-127.192 0-230.31-103.11-230.31-230.31s103.118-230.31 230.31-230.31c127.193 0 230.31 103.11 230.31 230.31s-103.117 230.31-230.31 230.31zM290.947 123.348l-58.002 57.994h-69.948v85.3h69.948l58.002 58.002v-201.296zM328.574 157.868l-13.661 10.171c11.678 15.643 18.684 34.97 18.684 55.953 0 20.984-7.006 40.309-18.684 55.953l13.661 10.171c13.803-18.485 22.083-41.326 22.083-66.125s-8.28-47.631-22.083-66.123zM355.897 137.525c18.051 24.183 28.871 54.045 28.871 86.466s-10.829 62.293-28.871 86.466l13.661 10.171c20.167-27.022 32.271-60.401 32.271-96.637s-12.103-69.614-32.271-96.637l-13.661 10.171zM397.064 106.879c24.415 32.704 38.893 73.246 38.893 117.113s-14.478 84.409-38.893 117.121l13.753 10.238c26.507-35.536 42.2-79.619 42.2-127.359s-15.693-91.814-42.2-127.35l-13.753 10.237z" horiz-adv-x="480" />
<glyph unicode="&#xe683;" d="M396.745 339.155c-63.592 0-115.155-51.554-115.155-115.155 0-41.55 22.075-77.845 55.062-98.095h-161.304c32.987 20.25 55.062 56.545 55.062 98.095 0 63.601-51.563 115.155-115.155 115.155s-115.155-51.554-115.155-115.155c0-63.6 51.563-115.155 115.155-115.155h281.49c63.592 0 115.155 51.555 115.155 115.155s-51.563 115.155-115.155 115.155z" />
<glyph unicode="&#xe684;" d="M434.982 334.89l-109.682-65.957v74.487c0 14.127-11.453 25.59-25.59 25.59h-272.96c-14.136 0-25.59-11.463-25.59-25.59v-238.84c0-14.128 11.454-25.59 25.59-25.59h272.96c14.137 0 25.59 11.462 25.59 25.59v75.903l112.090-67.373h41.45v221.78h-43.858z" horiz-adv-x="480" />
<glyph unicode="&#xe685;" d="M208 428.72c-113.064 0-204.72-91.647-204.72-204.72s91.656-204.72 204.72-204.72c113.073 0 204.72 91.648 204.72 204.72s-91.647 204.72-204.72 204.72zM352.285 104.164c-18.709 7.813-62.883 23.141-90.214 31.213-2.341 0.733-2.699 0.85-2.699 10.554 0 8.013 3.29 16.085 6.506 22.916 3.49 7.422 7.622 19.9 9.096 31.096 4.157 4.815 9.804 14.311 13.428 32.412 3.19 15.952 1.699 21.758-0.409 27.206-0.224 0.574-0.458 1.14-0.616 1.708-0.8 3.74 0.292 23.174 3.024 38.251 1.89 10.346-0.475 32.346-14.719 50.547-8.997 11.504-26.215 25.623-57.653 27.589l-17.243-0.017c-30.904-1.949-48.123-16.069-57.119-27.572-14.244-18.201-16.61-40.201-14.727-50.539 2.74-15.085 3.832-34.52 3.049-38.185-0.175-0.641-0.409-1.208-0.633-1.782-2.108-5.448-3.599-11.254-0.409-27.206 3.624-18.102 9.271-27.597 13.428-32.412 1.475-11.196 5.607-23.674 9.096-31.096 2.557-5.431 3.749-12.82 3.749-23.266 0-9.705-0.358-9.821-2.549-10.513-28.273-8.347-73.272-24.607-90.049-31.954-27.596 32.679-44.282 74.862-44.282 120.886 0 103.477 84.184 187.66 187.66 187.66 103.477 0 187.66-84.183 187.66-187.66 0-45.524-16.31-87.307-43.375-119.836z" horiz-adv-x="416" />
<glyph unicode="&#xe686;" d="M184.532 61.93v184.736l66.108-66.108 12.061 12.063-86.699 86.699-86.7-86.699 12.063-12.063 66.107 66.108v-184.736h-162.070v324.14h341.196v-324.14z" horiz-adv-x="352" />
<glyph unicode="&#xe687;" d="M295.42 232.53h-213.25v102.36c0 51.738 42.101 93.83 93.847 93.83 51.729 0 93.813-42.092 93.813-93.83v-34.12h17.060v34.12c0 61.234-49.647 110.89-110.873 110.89-61.251 0-110.907-49.656-110.907-110.89v-102.36h-59.71v-230.31h341.2v230.31h-51.18z" horiz-adv-x="352" />
<glyph unicode="&#xe688;" d="M264.53 437.042v25.798h-17.060v-25.798c-137.163-4.499-247.37-116.763-247.37-254.218 0-9.046 0.508-18.309 1.5-27.555l17.001 0.608c1.033 28.63 24.258 51.063 52.888 51.063 29.214 0 52.988-23.774 52.988-52.988h17.060c0 29.214 23.774 52.988 52.988 52.988 28.889 0 52.413-23.241 52.946-52.005v-132.082c0-20.783 16.901-37.693 37.686-37.693 20.792 0 37.702 16.91 37.702 37.693h-17.060c0-11.378-9.264-20.633-20.642-20.633-11.37 0-20.626 9.255-20.626 20.633v131.099h0.050c0 29.214 23.765 52.988 52.979 52.988 29.222 0 52.996-23.774 52.996-52.988h17.060c0 29.214 23.774 52.988 52.988 52.988 28.38 0 51.605-22.225 52.863-50.597l17.001-0.517c0.95 9.047 1.433 18.126 1.433 26.997-0.001 137.456-110.208 249.72-247.371 254.219z" />
<glyph unicode="&#xe689;" d="M236.77 386.070v17.060c0 18.843-15.277 34.12-34.12 34.12h-85.3c-18.843 0-34.12-15.277-34.12-34.12v-17.060h-85.3v-17.060h17.56l17.093-324.14c0-18.843 15.277-34.12 34.12-34.12h187.66c18.843 0 34.12 15.277 34.12 34.12l16.777 324.14h16.81v17.060h-85.3zM100.29 403.13c0 9.405 7.647 17.060 17.060 17.060h85.3c9.396 0 17.060-7.655 17.060-17.060v-17.060h-119.42v17.060zM100.706 61.388l-17.46 272.427 17.027 1.083 17.46-272.427-17.027-1.083zM168.53 61.93h-17.060v272.96h17.060v-272.96zM219.677 61.397l-17.027 1.066 17.21 272.96 17.026-1.066-17.209-272.96z" horiz-adv-x="320" />
<glyph unicode="&#xe68a;" d="M456.52 67.84l-90.473 90.473 12.070 12.071-12.061 12.061-36.177-36.177-60.335 60.318 72.489 72.505c9.654-3.44 19.75-5.181 30.105-5.181 23.891 0 46.356 9.305 63.258 26.19 26.073 26.090 33.47 64.866 18.843 98.778l-4.973 11.545-38.877-38.876-31.304-0.425 0.417 29.855 39.634 39.626-11.521 4.989c-11.303 4.89-23.307 7.372-35.669 7.372-23.898 0-46.357-9.305-63.234-26.198-24.74-24.723-32.687-60.834-20.983-93.438l-72.464-72.463-102.552 102.535 12.070 12.062-66.324 66.332-36.219-36.169 66.357-66.349 12.054 12.061 102.552-102.535-72.472-72.472c-9.68 3.466-19.818 5.215-30.205 5.215-23.891 0-46.357-9.305-63.242-26.198-26.132-26.115-33.512-64.941-18.809-98.895l4.99-11.512 39.626 39.626 29.846 0.4-0.425-31.304-38.876-38.877 11.545-4.973c11.271-4.856 23.225-7.322 35.536-7.322 23.899 0 46.349 9.297 63.234 26.182 24.699 24.707 32.654 60.776 21.026 93.33l72.505 72.514 60.334-60.311-36.202-36.202 12.061-12.062 12.062 12.062 90.465-90.465c8.055-8.063 18.775-12.503 30.163-12.503s22.1 4.44 30.163 12.503c16.627 16.619 16.62 43.676-0.008 60.302z" horiz-adv-x="480" />
<glyph unicode="&#xe68b;" d="M224 437.25c-117.77 0-213.25-95.479-213.25-213.25 0-117.77 95.48-213.25 213.25-213.25s213.25 95.48 213.25 213.25c0 117.771-95.48 213.25-213.25 213.25zM124.989 323.827c3.148 2.433 7.48 2.316 10.495 0l103.41-78.686c0.983-0.75 1.599-1.516 2.266-2.266 5.132-4.681 8.43-11.362 8.43-18.876 0-14.144-11.463-25.59-25.59-25.59-8.063 0-15.16 3.798-19.859 9.63-0.367 0.4-0.833 0.75-1.166 1.166l-79.552 102.56c-2.9 3.766-2.199 9.164 1.566 12.062zM224 28.068c-108.349 0-196.19 87.84-196.19 196.19 0 54.178 21.958 103.226 57.461 138.729l12.129-12.129c-32.437-32.438-52.529-77.22-52.529-126.601 0-98.77 80.36-179.13 179.13-179.13s179.13 80.36 179.13 179.13c0 95.896-75.804 174.199-170.6 178.697v-67.707h-17.060v84.985c2.832 0.125 5.665 0.217 8.53 0.217 108.349 0 196.19-87.841 196.19-196.19-0.001-108.35-87.842-196.191-196.191-196.191z" horiz-adv-x="448" />
<glyph unicode="&#xe68c;" d="M380.504 454.31h-112.406l-258.408-257.732 202.454-202.888 258.166 257.483v113.539l-89.806 89.598zM368 317.963c-18.818 0-34.12 15.27-34.12 34.046 0 18.784 15.302 34.061 34.12 34.061s34.12-15.277 34.12-34.061c0-18.776-15.302-34.046-34.12-34.046z" horiz-adv-x="480" />
<glyph unicode="&#xe68d;" d="M208.9 294.91c-37.686 0-68.249-30.547-68.249-68.249 0-37.686 30.563-68.249 68.249-68.249 37.693 0 68.231 30.563 68.231 68.249 0 37.702-30.538 68.249-68.231 68.249zM412.72 226.661c0 113.073-91.656 204.72-204.72 204.72s-204.72-91.647-204.72-204.72c0-62.309 27.873-118.079 71.788-155.622l-34.919-43.775 13.344-10.645 34.995 43.874c33.636-24.232 74.887-38.551 119.511-38.551 44.424 0 85.508 14.195 119.062 38.235l34.795-43.558 13.328 10.645-34.669 43.408c44.158 37.552 72.205 93.481 72.205 155.989zM208.891 90.181c-75.379 0-136.48 61.101-136.48 136.48 0 75.387 61.101 136.48 136.48 136.48s136.48-61.093 136.48-136.48c0-75.378-61.101-136.48-136.48-136.48z" horiz-adv-x="416" />
<glyph unicode="&#xe68e;" d="M256 351.833c-70.673 0-127.95-57.302-127.95-127.966 0-70.647 57.277-127.934 127.95-127.934 70.664 0 127.95 57.287 127.95 127.934 0 70.664-57.286 127.966-127.95 127.966zM247.537 479.9h17.060v-102.477h-17.060v102.477zM247.537 70.343h17.060v-102.243h-17.060v102.243zM0.1 232.53h102.36v-17.060h-102.36v17.060zM409.54 232.53h102.36v-17.060h-102.36v17.060zM430.959 411.505l12.062-12.061-71.321-71.321-12.062 12.061 71.321 71.321zM81.15 37.545l-12.063 12.063 71.321 71.321 12.063-12.063-71.321-71.321zM81.159 411.511l71.322-71.321-12.061-12.061-71.322 71.321 12.061 12.061zM430.998 37.543l-71.321 71.321 12.063 12.063 71.321-71.321-12.063-12.063z" />
<glyph unicode="&#xe68f;" d="M80.481 257.453l175.923-105.8 247.82 149.516-248.22 119.471-248.228-119.479 34.978-21.091v-184.47h17.060v174.182l20.575-12.403c0.025 0.024 0.067 0.057 0.092 0.074zM384.229 208.889l-127.826-77.162-128.074 77.221-2.050 0.957-15.285 9.221v-191.766h290.020v191.658z" />
<glyph unicode="&#xe690;" d="M352.618 339.496l14.436 14.436 14.627-14.627 18.093 18.093-41.317 41.317-18.093-18.093 14.627-14.627-14.436-14.436c-31.979 29.322-73.704 48.14-119.761 51.113v34.578h-25.59v-34.578c-102.384-6.597-183.394-91.673-183.394-195.732 0-108.357 87.833-196.19 196.19-196.19s196.19 87.833 196.19 196.19c0 51.113-19.559 97.645-51.572 132.556zM216.53 182.916v-35.686h-17.060v35.686c-9.913 3.532-17.060 12.895-17.060 24.024s7.147 20.492 17.060 24.024v112.456h17.060v-112.456c9.913-3.531 17.060-12.895 17.060-24.024s-7.147-20.492-17.060-24.024z" horiz-adv-x="416" />
<glyph unicode="&#xe691;" d="M240 441.515l54.087-166.368h176.223l-142.794-102.343 54.82-166.319-142.336 103.176-142.344-103.176 54.828 166.319-142.794 102.343h176.214z" horiz-adv-x="480" />
<glyph unicode="&#xe692;" d="M441.815 371.317l-12.27-12.278c39.926-31.255 65.724-79.752 65.724-134.272 0-55.97-27.214-105.584-68.981-136.705l12.345-12.345c44.783 34.295 73.697 88.291 73.697 149.051-0.001 59.3-27.549 112.154-70.515 146.549zM386.986 316.48l-12.404-12.403c26.332-16.635 43.917-45.924 43.917-79.31 0-34.862-19.151-65.284-47.457-81.46l12.428-12.429c31.255 19.61 52.088 54.27 52.088 93.889 0.001 38.142-19.258 71.762-48.572 91.713zM-0.329 163.524h51.18v-102.36h17.060v102.36h17.060v119.42h-85.3zM102.031 282.944v-119.42h97.112l124.601-100.828v324.14l-125.392-103.892z" />
<glyph unicode="&#xe693;" d="M239.512 185.611c-37.627 0-68.24-30.613-68.24-68.24s30.613-68.24 68.24-68.24c37.627 0 68.24 30.613 68.24 68.24s-30.612 68.24-68.24 68.24zM239.512 262.381c-57.586 0-107.291-33.821-130.682-82.576l12.77-12.762c19.434 45.949 64.966 78.278 117.912 78.278s98.478-32.329 117.913-78.278l12.769 12.762c-23.391 48.755-73.096 82.576-130.682 82.576zM240.345 398.869c-95.213 0-179.48-47.565-230.443-120.128l12.228-12.229c47.682 69.557 127.701 115.297 218.215 115.297 90.090 0 169.758-45.316 217.524-114.322l12.229 12.229c-51.039 72.013-134.964 119.153-229.753 119.153zM240.345 330.629c-76.454 0-143.603-40.468-181.254-101.077l12.42-12.412c34.204 57.66 97.062 96.429 168.834 96.429 71.339 0 133.89-38.285 168.226-95.38l12.378 12.379c-37.768 60.044-104.583 100.061-180.604 100.061z" horiz-adv-x="480" />
<glyph unicode="&#xe694;" d="M348.985 177.497l55.92-55.936h-100.745l-208.193 221.78h-85.517v-17.060h78.137l208.193-221.78h108.116l-55.753-55.779 12.062-12.061 76.345 76.378-76.503 76.52zM88.587 121.561h-78.137v-17.060h85.517l82.609 87.999-12.445 11.679zM304.169 326.281h100.727l-55.753-55.779 12.062-12.061 76.345 76.378-76.503 76.52-12.062-12.062 55.92-55.936h-108.133l-82.968-88.716 12.462-11.645z" horiz-adv-x="448" />
<glyph unicode="&#xe695;" d="M3.28 428.72v-409.44h409.44v409.44h-409.44zM335.95 326.36h-17.076v-59.71c0-61.251-49.639-110.89-110.882-110.89s-110.898 49.639-110.898 110.89v59.71h-17.044v17.060h51.18v-17.060h-17.076v-59.71c0-51.738 42.091-93.83 93.838-93.83 51.73 0 93.822 42.092 93.822 93.83v59.71h-17.044v17.060h51.18v-17.060z" horiz-adv-x="416" />
<glyph unicode="&#xe696;" d="M402.070 445.78c-37.685 0-68.24-30.563-68.24-68.24 0-6.539 0.975-12.853 2.691-18.843l-199.497-83.617c-11.795 20.434-33.821 34.22-59.094 34.22-37.677 0-68.24-30.563-68.24-68.24 0-37.685 30.563-68.24 68.24-68.24 19.743 0 37.486 8.439 49.947 21.85l128.55-92.388c-5.022-9.505-7.897-20.317-7.897-31.813 0-37.693 30.563-68.249 68.24-68.249s68.24 30.555 68.24 68.249c0 37.677-30.563 68.231-68.24 68.231-20.042 0-38.018-8.705-50.505-22.466l-128.375 92.239c5.282 9.688 8.28 20.783 8.28 32.587 0 6.339-0.932 12.454-2.549 18.285l199.647 83.684c11.853-20.159 33.72-33.737 58.802-33.737 37.686 0 68.24 30.555 68.24 68.249 0 37.676-30.554 68.239-68.24 68.239z" horiz-adv-x="480" />
<glyph unicode="&#xe697;" d="M208 280.053c115.622 0 196.19 44.316 196.19 84.076 0 39.776-80.568 84.084-196.19 84.084-115.621 0-196.19-44.307-196.19-84.084 0-39.76 80.569-84.076 196.19-84.076zM11.81 135.385v-51.53c0-39.76 80.569-84.067 196.19-84.067 115.622 0 196.19 44.307 196.19 84.067v51.53c-33.537-35.853-108.74-60.86-196.19-60.86s-162.653 25.007-196.19 60.86zM11.81 228.806v-51.53c0-39.759 80.569-84.067 196.19-84.067 115.622 0 196.19 44.308 196.19 84.067v51.53c-33.537-35.852-108.74-60.859-196.19-60.859s-162.653 25.007-196.19 60.859zM11.81 322.229v-51.53c0-39.751 80.569-84.067 196.19-84.067 115.622 0 196.19 44.316 196.19 84.067v51.53c-33.537-35.853-108.74-60.86-196.19-60.86s-162.653 25.006-196.19 60.86z" horiz-adv-x="416" />
<glyph unicode="&#xe698;" d="M293.258 159.854c23.358 28.089 37.419 64.167 37.419 103.543 0 89.515-72.554 162.070-162.070 162.070-89.498 0-162.070-72.555-162.070-162.070 0-89.498 72.572-162.070 162.070-162.070 39.385 0 75.454 14.061 103.543 37.419l116.205-116.213 21.108 21.108-116.205 116.213zM168.607 118.387c-79.969 0-145.010 65.050-145.010 145.010s65.041 145.010 145.010 145.010c79.953 0 145.010-65.050 145.010-145.010s-65.058-145.010-145.010-145.010zM168.607 390.938c-70.672 0-127.95-57.286-127.95-127.95s57.278-127.95 127.95-127.95c70.656 0 127.95 57.287 127.95 127.95 0 70.665-57.295 127.95-127.95 127.95z" horiz-adv-x="416" />
<glyph unicode="&#xe699;" d="M329.425 224c41.867 43.034 60.601 84.908 44.899 110.748-6.256 10.304-20.676 22.583-53.812 22.583-18.168 0-39.41-3.682-62.326-10.463-15.22 54.996-40.576 90.382-69.848 90.382-28.913 0-54.012-34.536-69.289-88.398-20.25 5.514-39.051 8.48-55.37 8.48-33.137 0-47.556-12.279-53.821-22.583-12.587-20.708-4.148-51.621 23.758-87.041 6.223-7.897 13.32-15.844 21.075-23.774-41.834-43-60.535-84.858-44.833-110.698 6.264-10.296 20.684-22.575 53.812-22.575 16.319 0 35.128 2.974 55.387 8.48 15.269-53.853 40.367-88.39 69.281-88.39 29.272 0 54.629 35.387 69.848 90.374 22.908-6.781 44.158-10.463 62.334-10.463 33.129 0 47.549 12.279 53.805 22.575 15.701 25.847-3.033 67.739-44.9 110.763zM320.512 340.272c13.911 0 32.012-2.499 39.235-14.386 10.404-17.119-5.256-51.755-42.484-89.957-13.578 12.703-29.063 25.39-46.198 37.668-1.849 20.201-4.807 39.21-8.722 56.628 21.649 6.481 41.567 10.047 58.169 10.047zM227.357 165.964c-11.679-7.097-23.491-13.636-35.261-19.6-11.762 5.964-23.574 12.503-35.253 19.6-12.295 7.472-24.049 15.31-35.22 23.366-0.725 11.179-1.192 22.691-1.192 34.669 0 11.996 0.467 23.516 1.199 34.712 10.93 7.897 22.658 15.711 35.186 23.324 11.687 7.098 23.499 13.637 35.278 19.61 11.778-5.973 23.591-12.512 35.278-19.61 9.638-5.856 18.668-11.853 27.364-17.893 0.975-12.837 1.517-26.215 1.517-40.143 0-13.919-0.542-27.305-1.517-40.134-8.695-6.039-17.734-12.045-27.379-17.901zM252.563 161.733c-1.674-13.769-3.923-26.639-6.555-38.651-11.288 3.982-22.916 8.688-34.703 14.036 8.306 4.482 16.627 9.229 24.915 14.269 5.58 3.39 11.020 6.855 16.343 10.346zM172.886 137.126c-14.228-6.464-28.222-11.954-41.659-16.402-3.232 14.228-5.856 29.764-7.705 46.515 7.939-5.414 16.044-10.738 24.457-15.852 8.289-5.040 16.602-9.788 24.907-14.261zM103.772 202.892c-8.738 6.931-17.018 13.978-24.674 21.084 7.514 7.006 15.81 14.078 24.674 21.142-0.259-6.939-0.4-13.978-0.4-21.117s0.141-14.179 0.4-21.109zM123.539 280.87c1.841 16.702 4.465 32.204 7.688 46.407 13.436-4.448 27.423-9.938 41.65-16.394-8.305-4.482-16.635-9.23-24.923-14.27-8.439-5.13-16.568-10.395-24.415-15.743zM211.312 310.883c11.787 5.347 23.407 10.046 34.695 14.028 2.632-12.003 4.881-24.865 6.555-38.635-5.323 3.499-10.754 6.948-16.326 10.338-8.288 5.039-16.619 9.788-24.924 14.269zM272.63 251.14c11.862-9.047 22.774-18.143 32.421-27.14-9.647-8.988-20.559-18.084-32.421-27.131 0.433 8.871 0.683 17.918 0.683 27.131s-0.249 18.26-0.683 27.14zM188.338 420.19c19.435 0 40.168-29.638 53.546-78.553-16.094-5.597-32.829-12.628-49.789-20.899-19.393 9.455-38.469 17.268-56.645 23.199 13.396 47.531 33.763 76.253 52.888 76.253zM24.436 325.886c7.222 11.887 25.323 14.386 39.243 14.386 14.777 0 32.204-2.832 51.114-8.022-4.524-19.643-7.848-41.334-9.705-64.534-13.987-10.446-26.79-21.125-38.219-31.837-7.305 7.481-14.003 14.961-19.85 22.391-22.85 28.997-31.080 53.638-22.583 67.616zM63.67 107.721c-13.912 0-32.012 2.499-39.235 14.377-10.404 17.127 5.248 51.755 42.458 89.957 11.562-10.771 24.399-21.374 38.185-31.67 1.849-23.242 5.181-44.966 9.713-64.642-18.908-5.182-36.335-8.022-51.121-8.022zM188.338 27.81c-19.125 0-39.492 28.722-52.888 76.245 18.177 5.939 37.261 13.744 56.645 23.208 16.96-8.272 33.695-15.302 49.789-20.909-13.378-48.913-34.111-78.544-53.546-78.544zM359.746 122.098c-7.222-11.878-25.315-14.377-39.227-14.377-16.61 0-36.527 3.566-58.177 10.046 3.915 17.427 6.873 36.436 8.73 56.645 17.127 12.287 32.612 24.965 46.19 37.668 37.228-38.21 52.888-72.855 42.484-89.982z" horiz-adv-x="384" />
<glyph unicode="&#xe69a;" d="M13.93 428.72v-409.44l162.070 119.42 162.070-119.42v409.44h-324.14zM261.3 241.060h-170.6v17.060h170.6v-17.060zM261.3 309.3h-170.6v17.060h170.6v-17.060z" horiz-adv-x="352" />
<glyph unicode="&#xe69b;" d="M402.889 112.818h-359.96l71.872 71.897-12.062 12.062-91.881-91.905 91.881-91.89 12.062 12.063-70.706 70.713h375.854v153.54h-17.060zM44.695 334.598h359.809l-71.289-71.305 12.063-12.062 91.864 91.88-91.881 91.907-12.062-12.063 71.272-71.297h-376.836v-153.54h17.060z" horiz-adv-x="448" />
<glyph unicode="&#xe69c;" d="M395.66 181.371c0-103.477-84.183-187.66-187.66-187.66s-187.66 84.183-187.66 187.66c0 103.234 83.801 187.251 186.952 187.643v-85.325l162.070 93.839-162.070 93.821v-85.275c-112.756-0.383-204.012-91.855-204.012-204.703 0-113.048 91.64-204.72 204.72-204.72 113.064 0 204.72 91.672 204.72 204.72h-17.060z" horiz-adv-x="416" />
<glyph unicode="&#xe69d;" d="M418.316 249.686c0.033 1.357 0.2 2.682 0.2 4.048 0 73.013-59.193 132.215-132.215 132.215-52.612 0-97.912-30.813-119.195-75.296-9.205 4.632-19.567 7.297-30.572 7.297-33.77 0-61.743-24.566-67.207-56.786-40.217-13.794-69.181-51.854-69.181-96.762 0-56.503 45.79-102.293 102.268-102.351l316.101 0.025c51.597 0.267 93.339 42.142 93.339 93.797 0 51.721-41.841 93.654-93.538 93.813zM255.996 121.761c-42.4 0-76.77 34.378-76.77 76.77 0 42.4 34.37 76.77 76.77 76.77v25.59l64.2-37.086-64.2-37.069v31.505c-32.921 0-59.71-26.782-59.71-59.71 0-32.929 26.789-59.71 59.71-59.71s59.71 26.781 59.71 59.71h17.060c0-42.392-34.379-76.77-76.77-76.77z" />
<glyph unicode="&#xe69e;" d="M417.825 334.434c-0.176 0.058-0.309 0.191-0.492 0.233l-361.975 85.3c-4.59 1.058-9.188-1.766-10.262-6.347-1.075-4.59 1.766-9.18 6.347-10.263l290.537-68.464h-307.314c-13.203 0-23.916-10.704-23.916-23.916v-259.257c0-13.204 10.713-23.907 23.916-23.907h378.669c13.211 0 23.915 10.703 23.915 23.907v259.256c0 11.67-8.364 21.358-19.425 23.458zM253.864 249.592c7.055 0 12.786-5.748 12.786-12.804s-5.731-12.786-12.786-12.786c-7.072 0-12.804 5.73-12.804 12.786 0 7.055 5.731 12.804 12.804 12.804zM211.205 224.002c7.064 0 12.795-5.74 12.795-12.787 0-7.072-5.731-12.803-12.795-12.803-7.047 0-12.795 5.73-12.795 12.803 0 7.047 5.748 12.787 12.795 12.787zM108.845 283.712c7.081 0 12.795-5.731 12.795-12.804 0-7.056-5.714-12.786-12.795-12.786-7.039 0-12.795 5.73-12.795 12.786 0 7.072 5.756 12.804 12.795 12.804zM44.87 185.624c0 7.065 5.739 12.795 12.786 12.795 7.056 0 12.804-5.73 12.804-12.795 0-7.047-5.748-12.795-12.804-12.795-7.047 0-12.786 5.749-12.786 12.795zM74.725 121.408c-7.056 0-12.795 5.731-12.795 12.795s5.739 12.795 12.795 12.795c7.047 0 12.795-5.731 12.795-12.795s-5.748-12.795-12.795-12.795zM74.725 224.002c-7.056 0-12.795 5.73-12.795 12.786 0 7.055 5.739 12.804 12.795 12.804 7.047 0 12.795-5.748 12.795-12.804s-5.748-12.786-12.795-12.786zM108.195 87.522c-7.039 0-12.795 5.748-12.795 12.803s5.756 12.787 12.795 12.787c7.081 0 12.795-5.731 12.795-12.787s-5.714-12.803-12.795-12.803zM117.366 147.947c-7.047 0-12.786 5.748-12.786 12.804s5.739 12.786 12.786 12.786c7.056 0 12.804-5.73 12.804-12.786s-5.748-12.804-12.804-12.804zM117.366 198.412c-7.047 0-12.786 5.73-12.786 12.803 0 7.047 5.739 12.787 12.786 12.787 7.056 0 12.804-5.74 12.804-12.787 0-7.073-5.748-12.803-12.804-12.803zM164.215 70.462c-7.055 0-12.804 5.748-12.804 12.803s5.748 12.804 12.804 12.804c7.056 0 12.786-5.748 12.786-12.804s-5.73-12.803-12.786-12.803zM164.215 121.408c-7.055 0-12.804 5.748-12.804 12.795 0 7.064 5.748 12.795 12.804 12.795s12.786-5.731 12.786-12.795c0-7.048-5.73-12.795-12.786-12.795zM164.223 172.829c-7.064 0-12.812 5.748-12.812 12.795 0 7.065 5.748 12.795 12.812 12.795 7.047 0 12.778-5.73 12.778-12.795 0-7.046-5.73-12.795-12.778-12.795zM164.215 224.002c-7.055 0-12.804 5.73-12.804 12.786 0 7.055 5.748 12.804 12.804 12.804s12.786-5.748 12.786-12.804c0-7.056-5.73-12.786-12.786-12.786zM164.215 275.182c-7.055 0-12.804 5.748-12.804 12.803s5.748 12.787 12.804 12.787c7.056 0 12.786-5.731 12.786-12.787s-5.73-12.803-12.786-12.803zM198.41 160.034c0 7.056 5.748 12.787 12.795 12.787 7.064 0 12.795-5.731 12.795-12.787s-5.731-12.803-12.795-12.803c-7.047 0.001-12.795 5.748-12.795 12.803zM219.401 87.522c-7.055 0-12.795 5.748-12.795 12.803s5.74 12.787 12.795 12.787c7.065 0 12.795-5.731 12.795-12.787s-5.73-12.803-12.795-12.803zM219.401 258.122c-7.055 0-12.795 5.73-12.795 12.786 0 7.072 5.74 12.804 12.795 12.804 7.065 0 12.795-5.731 12.795-12.804 0-7.056-5.73-12.786-12.795-12.786zM253.864 121.408c-7.072 0-12.804 5.731-12.804 12.795s5.731 12.795 12.804 12.795c7.055 0 12.786-5.731 12.786-12.795s-5.731-12.795-12.786-12.795zM270.924 172.829c-7.047 0-12.804 5.748-12.804 12.795 0 7.065 5.756 12.795 12.804 12.795 7.072 0 12.786-5.73 12.786-12.795 0-7.046-5.714-12.795-12.786-12.795zM360.496 164.308c-14.127 0-25.606 11.454-25.606 25.581s11.479 25.582 25.606 25.582c14.111 0 25.574-11.454 25.574-25.582s-11.463-25.581-25.574-25.581zM360.496 232.548c-14.127 0-25.606 11.454-25.606 25.581s11.479 25.582 25.606 25.582c14.111 0 25.574-11.454 25.574-25.582s-11.463-25.581-25.574-25.581z" horiz-adv-x="448" />
<glyph unicode="&#xe69f;" d="M104.58 437.25h238.84v-68.24h-238.84v68.24zM121.64 181.35h204.72v-170.6h-204.72v170.6zM437.25 351.95h-426.5c-4.715 0-8.53-3.815-8.53-8.53v-255.9c0-4.715 3.815-8.53 8.53-8.53h93.83v119.42h238.84v-119.42h93.83c4.715 0 8.53 3.815 8.53 8.53v255.9c0 4.715-3.815 8.53-8.53 8.53zM87.52 249.59c-9.421 0-17.060 7.639-17.060 17.060s7.639 17.060 17.060 17.060 17.060-7.639 17.060-17.060c0-9.421-7.639-17.060-17.060-17.060zM138.7 249.59c-9.421 0-17.060 7.639-17.060 17.060s7.639 17.060 17.060 17.060 17.060-7.639 17.060-17.060c0-9.421-7.639-17.060-17.060-17.060z" horiz-adv-x="448" />
<glyph unicode="&#xe6a0;" d="M240 224.009l238.84-136.489v272.96zM1.16 224.009l238.84-136.489v272.96z" horiz-adv-x="480" />
<glyph unicode="&#xe6a1;" d="M196.888 437.25h17.060v-204.72h-17.060v204.72zM290.718 402.73v-18.868c62.101-30.63 104.942-94.596 104.942-168.392 0-103.477-84.183-187.66-187.66-187.66-103.476 0-187.66 84.183-187.66 187.66 0 71.739 40.477 134.173 99.778 165.744v19.184c-69.081-32.888-116.838-103.318-116.838-184.928 0-113.064 91.657-204.72 204.72-204.72s204.72 91.656 204.72 204.72c0 83.617-50.155 155.481-122.002 187.26z" horiz-adv-x="416" />
<glyph unicode="&#xe6a2;" d="M267.71 194.145h-17.060v-17.060h-85.3v17.060h-162.070v-153.54h409.44v153.54h-17.060zM267.71 364.745v42.65h-119.42v-42.65h-145.010v-153.54h162.070v17.060h85.3v-17.060h162.070v153.54h-145.010zM165.35 390.335h85.3v-25.59h-85.3v25.59z" horiz-adv-x="416" />
<glyph unicode="&#xe6a3;" d="M224 437.25c-117.787 0-213.25-95.463-213.25-213.25s95.463-213.25 213.25-213.25c117.788 0 213.25 95.463 213.25 213.25s-95.462 213.25-213.25 213.25zM351.95 215.47h-119.42v-118.854h-17.060v118.854h-118.854v17.060h118.854v119.42h17.060v-119.42h119.42v-17.060z" horiz-adv-x="448" />
<glyph unicode="&#xe6a4;" d="M6.46 403.13v-358.26l307.080 179.13z" horiz-adv-x="320" />
<glyph unicode="&#xe6a5;" d="M468.784 447.204l-1.424 4.715-4.798 1.125c-0.416 0.1-10.313 2.382-22.732 2.382-18.218 0-32.795-4.948-42.15-14.312l-78.928-78.927-222.915 39.102-44.516-44.508 175.823-86.208-84.334-84.342c-6.631-6.623-17.243-20.184-21.992-26.365l-92.555-5.057-20.65-39.593 101.085-22.349 21.276-100.294 39.184 21.258 6.889 86.808c6.565 6.015 24.249 22.308 32.529 30.588l78.769 78.786 85.866-175.115 44.508 44.516-38.95 222.006 79.302 79.303c13.703 13.71 18.209 41.674 10.713 66.481z" horiz-adv-x="480" />
<glyph unicode="&#xe6a6;" d="M430.909 343.42h-361.509v-307.080h400.91v307.080zM393.54 360.48h17.060v51.18h-400.91v-307.080h42.65v255.9h308.912z" horiz-adv-x="480" />
<glyph unicode="&#xe6a7;" d="M7.52 385.72h272.96v-271.327h-272.96v271.327zM257.381 454.31h-226.762c-12.753 0-23.099-10.355-23.099-23.108v-28.422h272.96v28.422c0 12.753-10.346 23.108-23.099 23.108zM7.52 16.789c0-12.77 10.346-23.099 23.099-23.099h226.762c12.753 0 23.099 10.329 23.099 23.099v80.544h-272.96v-80.544zM118.41 61.93h51.18v-17.060h-51.18v17.060z" horiz-adv-x="288" />
<glyph unicode="&#xe6a8;" d="M223.797 309.004c2.183 0 4.366 0.833 6.032 2.499l132.189 132.19 17.252-17.243-84.8-84.8 68.023-68.007 113.507 113.506-68.016 68.015-16.651-16.652-23.283 23.274c-3.332 3.332-8.73 3.332-12.062 0l-138.221-138.221c-3.332-3.333-3.332-8.73 0-12.062 1.665-1.666 3.848-2.499 6.030-2.499zM350.431 261.581l-68.023 68.006-196.231-196.231 19.759-19.767c-8.313 4.115-17.376 6.214-26.448 6.214-15.303 0-30.613-5.84-42.3-17.527-1.192-1.183-2.341-2.466-3.449-3.807-0.55-0.641-1.066-1.308-1.566-1.975-0.591-0.749-1.158-1.541-1.716-2.332-0.408-0.583-0.824-1.15-1.208-1.732-18.193-27.339-23.633-72.887-25.249-95.296l55.945 55.945 12.061-12.062-57.311-57.302c23.549 0.425 77.828 4.715 107.092 33.978 18.601 18.601 22.341 46.398 11.304 68.748l21.1-21.1 196.24 196.24z" horiz-adv-x="480" />
<glyph unicode="&#xe6a9;" d="M403.103 431.682l-403.251-193.533 145.61-64.101zM158.524 162.978l72.872-146.66 184.752 404.284z" horiz-adv-x="416" />
<glyph unicode="&#xe6aa;" d="M399.925 394.6v26.457c0 23.075-18.709 41.783-41.783 41.783h-274.668c-23.075 0-41.776-18.709-41.776-41.783v-26.457h-7.822c-19.259 0-34.861-15.61-34.861-34.861v-58.385c0-19.251 15.602-34.861 34.861-34.861l160.579 0.049c9.821 0 17.81-7.988 17.81-17.801v-58.86h-34.103v-204.72h85.3v204.719h-34.137v58.86c0 19.251-15.61 34.861-34.87 34.861h-21.125v-0.049h-139.454c-9.812 0-17.801 7.988-17.801 17.801v58.385c0 9.813 7.989 17.801 17.801 17.801h7.822v-26.464c0-23.074 18.701-41.776 41.776-41.776h274.668c23.075 0 41.783 18.701 41.783 41.776v26.465h17.060v17.060h-17.060z" horiz-adv-x="416" />
<glyph unicode="&#xe6ab;" d="M190.94 248.466v180.254h-88.174v-181.238l46.39 39.035zM208 428.72v-218.864l-59.294 53.987-63-53.012v217.889h-14.186c-40.818 0-68.24-27.422-68.24-68.24v-248.12c11.862 11.329 29.471 17.81 51.18 17.81h358.26v298.55h-204.72zM3.621 71.060c0.009-0.091 0.033-0.191 0.042-0.283h-0.067c1.715-17.326 12.362-51.496 69.389-51.496h339.735v93.83h-358.26c-31.813-0.001-50.806-15.72-50.839-42.051z" horiz-adv-x="416" />
<glyph unicode="&#xe6ac;" d="M396.473 412.839c-4.998 4.99-11.554 7.488-18.101 7.488-6.555 0-13.103-2.498-18.093-7.488l-211.776-211.776v-36.91h35.502l212.466 212.492c10.007 9.979 10.007 26.198 0.002 36.194zM331.166 287.205l-140.096-140.112h-59.627v61.042l143.677 143.678h-263.097v-324.14h324.14v264.521l-3.656-3.657z" horiz-adv-x="416" />
<glyph unicode="&#xe6ad;" d="M1.16 87.52l238.84 136.488-238.84 136.472zM478.84 224.008l-238.84 136.472v-272.96z" horiz-adv-x="480" />
<glyph unicode="&#xe6ae;" d="M96.050 198.41h-85.3c0 0 0-105.426 0-139.495 0-30.38 25.191-44.833 47.324-47.623 22.591 2.666 37.976 20.642 37.976 37.094v150.024zM113.11 437.25v-388.865c0-13.378-6.264-27.214-17.151-37.635 71.114 0 240.681 0 290.111 0 25.857 0 51.18 25.149 51.18 51.18 0 18.792 0 375.32 0 375.32h-324.14zM386.070 78.99h-221.78v17.060h221.78v-17.060zM386.070 138.7h-221.78v17.060h221.78v-17.060zM386.070 198.41h-221.78v127.95h221.78v-127.95zM386.070 369.010h-221.78v17.060h221.78v-17.060z" horiz-adv-x="448" />
<glyph unicode="&#xe6af;" d="M10.75 343.408h221.78v-17.060h-221.78v17.060zM10.75 266.638h221.78v-17.060h-221.78v17.060zM10.75 189.868h221.78v-17.060h-221.78v17.060zM317.83 333.212l119.42-15.394c0 85.3-68.24 102.36-136.48 119.445v-324.165c-10.212 0-26.456 0-52.563 0-50.138 0-66.857-26.532-66.857-50.764 0-20.559 15.386-51.596 68.24-51.596 75.571 0 68.24 60.676 68.24 102.36v220.114z" horiz-adv-x="448" />
<glyph unicode="&#xe6b0;" d="M412.72 456.721l-281.49-99.578v-246.679c-13.303 15.786-33.195 25.84-55.445 25.84-40.035 0-72.505-32.47-72.505-72.521 0-40.035 32.47-72.505 72.505-72.505 39.618 0 71.771 31.804 72.438 71.264h0.067v282.54l247.37 87.516v-228.311c-13.303 15.786-33.195 25.832-55.454 25.832-40.042 0-72.496-32.454-72.496-72.505 0-40.043 32.454-72.505 72.496-72.505s72.514 32.462 72.514 72.505c0 1.374-0.133 2.715-0.208 4.065h0.208v295.042z" horiz-adv-x="416" />
<glyph unicode="&#xe6b1;" d="M0.050 92.343c0-68.614 57.286-124.243 127.95-124.243s127.95 55.628 127.95 124.243v97.537h-255.9v-97.537zM119.47 343.004c-66.666-4.282-119.42-58.011-119.42-123.827v-12.237h119.42v136.064zM136.53 369.36c0 7.789 16.46 18.093 29.688 26.382 18.951 11.862 38.552 24.141 38.552 42.025v42.133h-17.060v-42.134c0-8.438-16.935-19.042-30.547-27.572-18.534-11.595-37.693-23.599-37.693-40.834v-25.94h17.060v25.94zM136.53 343.004v-136.064h119.42v12.237c0 65.816-52.755 119.545-119.42 123.827z" horiz-adv-x="256" />
<glyph unicode="&#xe6b2;" d="M102.46 224c0-28.266-22.914-51.18-51.18-51.18s-51.18 22.914-51.18 51.18c0 28.266 22.914 51.18 51.18 51.18s51.18-22.914 51.18-51.18zM511.9 224c0-28.266-22.914-51.18-51.18-51.18s-51.18 22.914-51.18 51.18c0 28.266 22.914 51.18 51.18 51.18s51.18-22.914 51.18-51.18zM307.18 224c0-28.266-22.914-51.18-51.18-51.18s-51.18 22.914-51.18 51.18c0 28.266 22.914 51.18 51.18 51.18s51.18-22.914 51.18-51.18z" />
<glyph unicode="&#xe6b3;" d="M307.842 124.759c-102.385 0-185.394 83.001-185.394 185.386 0 48.981 19.143 93.405 50.197 126.543-93.072-24.141-161.895-108.474-161.895-209.102 0-119.436 96.845-216.274 216.282-216.274 102.193 0 187.61 70.964 210.218 166.219-33.395-32.621-79.019-52.772-129.408-52.772z" horiz-adv-x="448" />
<glyph unicode="&#xe6b4;" d="M445.78 113.11v307.080h-443.56v-307.080h213.25v-68.24h-59.71v-17.060h136.48v17.060h-59.71v68.24z" horiz-adv-x="448" />
<glyph unicode="&#xe6b5;" d="M144.042 121.972c51.691 0 93.61 41.91 93.61 93.61v170.216c0 51.7-41.919 93.601-93.61 93.601s-93.61-41.902-93.61-93.601v-170.216c0-51.7 41.918-93.61 93.61-93.61zM271.65 300.69v-85.108c0-70.383-57.26-127.65-127.65-127.65s-127.65 57.267-127.65 127.65v85.108h-17.020v-85.108c0-77.28 60.958-140.415 137.29-144.296h-1.088v-85.665h-76.632v-17.020h170.2v17.020h-76.548v85.665h-1.172c76.332 3.881 137.29 67.016 137.29 144.296v85.108h-17.020z" horiz-adv-x="288" />
<glyph unicode="&#xe6b6;" d="M3.28 369.010h409.44v-68.24h-409.44v68.24zM3.28 258.12h409.44v-68.24h-409.44v68.24zM3.28 147.23h409.44v-68.24h-409.44v68.24z" horiz-adv-x="416" />
<glyph unicode="&#xe6b7;" d="M215.47 386.070l-85.3 42.65v-358.26l85.3-42.65zM113.11 428.72l-102.36-51.18v-358.26l102.36 51.18zM336.873 427.729l-1.983 0.991v-358.26l102.36-51.18v358.26zM317.83 428.72l-85.3-42.65v-358.26l85.3 42.65z" horiz-adv-x="448" />
<glyph unicode="&#xe6b8;" d="M176.009 479.909c-94.222 0-170.609-76.404-170.609-170.609 0-31.113 8.371-60.193 22.916-85.309l147.684-255.9 147.684 255.9c14.545 25.116 22.916 54.195 22.916 85.309 0 94.205-76.387 170.609-170.591 170.609zM176.009 266.659c-23.557 0-42.659 19.084-42.659 42.641 0 23.533 19.101 42.634 42.659 42.634 23.549 0 42.641-19.101 42.641-42.634 0-23.557-19.093-42.641-42.641-42.641z" horiz-adv-x="352" />
<glyph unicode="&#xe6b9;" d="M138.616 225.916l-127.866 127.859v-255.726zM238.103 178.701l181.787 181.779h-391.722l181.796-181.779c7.514-7.514 20.625-7.514 28.139 0zM297.379 213.854l-47.214-47.215c-6.972-6.981-16.261-10.829-26.132-10.829s-19.159 3.848-26.132 10.829l-47.214 47.207-126.338-126.326h399.374l-126.344 126.334zM309.45 225.916l127.8-127.8v255.6z" horiz-adv-x="448" />
<glyph unicode="&#xe6ba;" d="M181.868 182.793c6.972 6.98 16.261 10.829 26.132 10.829s19.159-3.849 26.132-10.829l45.256-45.266 122.619 122.619-179.938 179.946c-7.513 7.514-20.626 7.514-28.139 0l-180.621-180.596 122.628-122.626 45.931 45.923zM122.6 123.533l1.266 1.283-112.056 112.056v-224.087l110.773 110.764zM377.542 15.3h-0.042l-155.431 155.431c-7.513 7.514-20.626 7.514-28.139 0l-168.508-168.458h365.148l-13.028 13.027zM291.451 125.466l1.933-1.933 0.033 0.025 110.773-110.782v225.429z" horiz-adv-x="416" />
<glyph unicode="&#xe6bb;" d="M335.95 326.204v-132.115l66.057 66.057zM222.069 440.092c-7.514 7.514-20.626 7.514-28.14 0l-28.389-28.38h84.908l-28.379 28.38zM80.058 326.237l-66.749-66.741 66.749-66.748zM122.599 123.533l1.267 1.283-112.056 112.056v-224.087l110.773 110.764zM377.541 15.3h-0.041l-155.431 155.431c-7.514 7.514-20.626 7.514-28.14 0l-168.507-168.458h365.148l-13.029 13.027zM291.451 125.466l1.932-1.933 0.033 0.025 110.774-110.782v225.429zM181.868 182.793c6.972 6.98 16.26 10.829 26.132 10.829 9.871 0 19.159-3.849 26.131-10.829l45.257-45.266 39.502 39.502v166.235l-51.38 51.388h-170.392v-218.964l38.818-38.818 45.932 45.923zM148.29 343.472h119.42v-17.060h-119.42v17.060zM148.29 292.292h85.3v-17.060h-85.3v17.060zM148.29 241.112h119.42v-17.060h-119.42v17.060z" horiz-adv-x="416" />
<glyph unicode="&#xe6bc;" d="M4.34 437.25h102.143v-68.24h-102.143v68.24zM277.517 437.25h102.143v-68.24h-102.143v68.24zM277.517 351.95v-153.323c0-47.232-38.277-85.517-85.517-85.517s-85.517 38.284-85.517 85.517v153.323h-102.143v-153.54c0-103.643 84.017-187.66 187.66-187.66s187.66 84.017 187.66 187.66v153.54h-102.143z" horiz-adv-x="384" />
<glyph unicode="&#xe6bd;" d="M327.388 306.818l-148.242-147.143 12.046-12.095 148.242 147.142zM110.99 130.17c-51.738 0-93.83 42.092-93.83 93.83 0 51.739 42.092 93.83 93.83 93.83 25.057 0 47.789-9.929 64.634-25.982l0.008 0.092 0.867-0.758 33.212-33.062h-30.481v-17.060h59.71v59.71h-17.060v-30.696l-33.337 33.187-0.075-0.075c-20.009 19.584-47.34 31.704-77.478 31.704-61.143 0-110.89-49.747-110.89-110.89s49.747-110.89 110.89-110.89c31.529 0 59.96 13.295 80.177 34.495l-12.054 12.061c-17.118-18.117-41.292-29.496-68.123-29.496zM401.010 334.89c-28.239 0-53.962-10.696-73.554-28.139l12.053-12.054c16.486 14.361 37.969 23.133 61.501 23.133 51.738 0 93.83-42.091 93.83-93.83s-42.092-93.83-93.83-93.83c-24.966 0-47.623 9.863-64.45 25.815l-0.025-0.159-56.494 56.287-12.113-12.020 56.562-56.345 0.1 0.1c19.918-18.992 46.798-30.738 76.42-30.738 61.143 0 110.89 49.748 110.89 110.89s-49.747 110.89-110.89 110.89z" />
<glyph unicode="&#xe6be;" d="M256 377.54c-93.547 0-166.468-58.552-255.9-153.481 77.053-81.169 141.711-153.599 255.9-153.599s198.114 91.689 255.9 151.883c-59.152 70.514-143.086 155.197-255.9 155.197zM256 121.649c-56.445 0-102.36 45.915-102.36 102.351s45.915 102.351 102.36 102.351 102.36-45.915 102.36-102.351-45.915-102.351-102.36-102.351zM256 283.71c-32.921 0-59.71-26.789-59.71-59.71s26.789-59.71 59.71-59.71c32.921 0 59.71 26.789 59.71 59.71s-26.789 59.71-59.71 59.71z" />
<glyph unicode="&#xe6bf;" d="M286.89 232.53v102.36c0 61.234-49.647 110.89-110.873 110.89-61.251 0-110.907-49.656-110.907-110.89v-102.36h-59.71v-230.31h341.2v230.31h-59.71zM82.17 334.89c0 51.738 42.101 93.83 93.847 93.83 51.729 0 93.813-42.092 93.813-93.83v-102.36h-187.66v102.36z" horiz-adv-x="352" />
<glyph unicode="&#xe6c0;" d="M8.58 479.9h238.84v-51.18h-238.84v51.18zM68.29 19.355h119.42v-51.255h-119.42v51.255zM18.535 411.66l49.755-85.3v-289.945h119.42v289.945l49.755 85.3h-218.93zM153.59 181.317c0-14.12-11.462-25.59-25.59-25.59-14.127 0-25.59 11.47-25.59 25.59v34.153c0 14.128 11.463 25.59 25.59 25.59s25.59-11.462 25.59-25.59v-34.153z" horiz-adv-x="256" />
<glyph unicode="&#xe6c1;" d="M248.544 147.318c-20.817 0-41.634 7.914-57.478 23.766l12.061 12.061c25.049-25.048 65.791-25.040 90.839 0l107.45 107.45c25.032 25.041 25.032 65.783 0 90.831l-20.009 20.001c-25.040 25.040-65.791 25.040-90.831 0l-75.829-75.821-12.061 12.062 75.828 75.82c31.688 31.688 83.251 31.704 114.955 0l20.009-20c31.68-31.696 31.68-83.267 0-114.955l-107.45-107.449c-15.843-15.844-36.668-23.766-57.484-23.766zM112.013 10.739c-21.708 0-42.125 8.455-57.478 23.807l-20.009 20.001c-31.687 31.703-31.687 83.267 0 114.955l107.45 107.458c31.687 31.687 83.276 31.687 114.963 0l20.001-20.009-12.062-12.062-20 20.009c-25.041 25.041-65.8 25.032-90.84 0l-107.449-107.458c-25.032-25.032-25.032-65.783 0-90.832l20.009-20c12.128-12.129 28.263-18.81 45.415-18.81 17.16 0 33.287 6.681 45.415 18.81l71.505 71.505 12.062-12.062-71.505-71.505c-15.344-15.353-35.76-23.807-57.477-23.807z" horiz-adv-x="448" />
<glyph unicode="&#xe6c2;" d="M318.171 415.221c-37.527 0-71.988-17.426-94.171-46.148-22.183 28.722-56.644 46.148-94.171 46.148-65.658 0-119.079-53.421-119.079-119.078 0-30.855 11.787-60.127 33.204-82.426l180.046-180.938 176.856 177.73c23.366 22.425 36.394 52.93 36.394 85.634 0 65.657-53.421 119.078-119.079 119.078z" horiz-adv-x="448" />
<glyph unicode="&#xe6c3;" d="M72.932 165.069c0.783-0.533 1.591-1.141 2.424-1.791 0.084-0.058 0.159-0.125 0.233-0.183 13.204-10.42 32.171-34.761 32.171-66.891v-34.12h59.71v206.161c-14.685 3.807-25.581 17.035-25.581 32.904 0 18.834 15.269 34.111 34.111 34.111s34.112-15.277 34.112-34.111c0-15.868-10.896-29.097-25.582-32.904v-206.162h59.71v34.12c0 34.12 19.709 58.603 34.12 68.332l-0.041 0.049c41.425 31.105 68.281 80.527 68.281 136.322 0 94.213-76.37 170.6-170.6 170.6s-170.6-76.387-170.6-170.6c0-55.487 26.574-104.667 67.607-135.797l-0.075-0.040zM107.76 45.024h136.48v-68.531h-136.48v68.531z" horiz-adv-x="352" />
<glyph unicode="&#xe6c4;" d="M224 437.25c-117.787 0-213.25-95.463-213.25-213.25s95.463-213.25 213.25-213.25c117.788 0 213.25 95.463 213.25 213.25s-95.462 213.25-213.25 213.25zM334.89 215.47h-221.214v17.060h221.214v-17.060z" horiz-adv-x="448" />
<glyph unicode="&#xe6c5;" d="M62.99 130.166c-28.264 0-51.18-22.907-51.18-51.171s22.916-51.18 51.18-51.18c28.256 0 51.18 22.916 51.18 51.18s-22.924 51.171-51.18 51.171zM62.99 420.186c-28.264 0-51.18-22.907-51.18-51.171s22.916-51.18 51.18-51.18c28.256 0 51.18 22.916 51.18 51.18s-22.924 51.171-51.18 51.171zM62.99 275.534c-28.264 0-51.18-22.908-51.18-51.171 0-28.264 22.916-51.18 51.18-51.18 28.256 0 51.18 22.916 51.18 51.18 0 28.263-22.924 51.171-51.18 51.171zM208 130.166c-28.264 0-51.18-22.907-51.18-51.171s22.916-51.18 51.18-51.18c28.256 0 51.18 22.916 51.18 51.18s-22.924 51.171-51.18 51.171zM208 420.186c-28.264 0-51.18-22.907-51.18-51.171s22.916-51.18 51.18-51.18c28.256 0 51.18 22.916 51.18 51.18s-22.924 51.171-51.18 51.171zM208 275.534c-28.264 0-51.18-22.908-51.18-51.171 0-28.264 22.916-51.18 51.18-51.18 28.256 0 51.18 22.916 51.18 51.18 0 28.263-22.924 51.171-51.18 51.171zM353.010 130.166c-28.264 0-51.18-22.907-51.18-51.171s22.916-51.18 51.18-51.18c28.256 0 51.18 22.916 51.18 51.18s-22.924 51.171-51.18 51.171zM353.010 317.834c28.256 0 51.18 22.916 51.18 51.18s-22.924 51.171-51.18 51.171c-28.264 0-51.18-22.907-51.18-51.171s22.916-51.18 51.18-51.18zM353.010 275.534c-28.264 0-51.18-22.908-51.18-51.171 0-28.264 22.916-51.18 51.18-51.18 28.256 0 51.18 22.916 51.18 51.18 0 28.263-22.924 51.171-51.18 51.171z" horiz-adv-x="416" />
<glyph unicode="&#xe6c6;" d="M10.746 368.989v-17.060h12.537l4.523-34.12c0-10.229 4.54-19.359 11.704-25.59h368.973c7.163 6.231 11.703 15.361 11.703 25.59l4.523 34.12h12.545v17.060h-426.508zM77.437 111.572c3.148-17.851 14.585-32.562 32.57-32.562h227.978c17.976 0 28.889 14.444 32.571 32.562l28.047 163.587h-349.214l28.048-163.587zM160.629 241.372l12.062 12.062 51.313-51.305 51.305 51.305 12.062-12.062-51.305-51.305 51.471-51.472-12.061-12.061-51.472 51.471-51.48-51.471-12.061 12.061 51.472 51.472-51.306 51.305z" horiz-adv-x="448" />
<glyph unicode="&#xe6c7;" d="M224 437.25c-117.77 0-213.25-95.471-213.25-213.25s95.48-213.25 213.25-213.25c117.77 0 213.25 95.471 213.25 213.25s-95.48 213.25-213.25 213.25zM225.066 352.675c14.127 0 25.59-11.437 25.59-25.581 0-14.128-11.463-25.582-25.59-25.582-14.128 0-25.59 11.454-25.59 25.582 0 14.144 11.462 25.581 25.59 25.581zM259.503 105.321h-68.24v17.060h17.060v145.010h-17.060v17.060h51.18v-162.070h17.060v-17.060z" horiz-adv-x="448" />
<glyph unicode="&#xe6c8;" d="M224 437.25l-85.3-85.3v34.12h-68.24v-102.36l-60.076-60.077 12.061-12.062 201.555 201.554 201.554-201.554 12.062 12.062zM70.46 215.47v-204.72h119.42v119.42h68.24v-119.42h119.42v204.72l-153.54 153.54z" horiz-adv-x="448" />
<glyph unicode="&#xe6c9;" d="M175.63 311.953c10.113 3.74 20.984 5.881 32.37 5.881 11.795 0 23.041-2.283 33.445-6.273l61.36 93.797c-28.364 14.852-60.568 23.366-94.805 23.366-33.837 0-65.674-8.355-93.797-22.891l61.427-93.88zM256.848 303.964c12.895-7.897 23.707-18.809 31.521-31.779l92.781 60.701c-16.219 25.732-37.944 47.549-63.601 63.859l-60.701-92.781zM295.85 256.7c3.798-10.204 5.98-21.192 5.98-32.695v-0.025c-0.008-11.379-2.14-22.258-5.864-32.354l93.88-61.426c14.527 28.123 22.874 59.968 22.874 93.805 0 33.945-8.396 65.899-23.024 94.088l-93.846-61.393zM256.923 144.077l60.701-92.781c25.723 16.369 47.481 38.268 63.692 64.1l-92.781 60.701c-7.796-13.069-18.659-24.056-31.612-32.020zM241.52 136.463c-10.421-3.999-21.699-6.298-33.52-6.298-11.412 0-22.316 2.15-32.445 5.915l-61.418-93.88c28.131-14.561 59.993-22.924 93.863-22.924 34.262 0 66.499 8.53 94.872 23.408l-61.352 93.779zM160.036 143.519c-13.129 7.855-24.158 18.793-32.121 31.854l-92.781-60.71c16.361-25.814 38.301-47.665 64.192-63.942l60.71 92.798zM160.102 304.531l-60.692 92.781c-25.832-16.219-47.731-37.977-64.1-63.7l92.772-60.701c7.963 12.969 18.942 23.823 32.020 31.62zM120.351 190.809c-3.931 10.337-6.172 21.5-6.181 33.204 0 11.811 2.291 23.082 6.298 33.503l-93.78 61.36c-14.878-28.39-23.408-60.618-23.408-94.88 0.009-34.136 8.481-66.265 23.258-94.563l93.813 61.376z" horiz-adv-x="416" />
<glyph unicode="&#xe6ca;" d="M224 437.25c-117.779 0-213.25-95.471-213.25-213.25 0-117.77 95.471-213.25 213.25-213.25s213.25 95.48 213.25 213.25c0 117.779-95.471 213.25-213.25 213.25zM224 113.11c-9.413 0-17.060 7.63-17.060 17.060 0 9.413 7.647 17.051 17.060 17.051 9.421 0 17.060-7.639 17.060-17.051 0-9.43-7.639-17.060-17.060-17.060zM257.896 229.806c-22.833-22.825-22.25-22.3-23.375-48.456h-19.051c1.141 28.847 7.506 38.743 30.189 59.802 11.046 10.454 19.409 22.991 19.409 38.518 0 23.882-19.409 40.301-42.692 40.301-32.545 0-48.665-22.566-48.073-53.321h-18.809c0.308 42.392 24.482 69.148 67.782 69.148 33.128 0 60.593-20.601 60.593-55.229 0-22.091-10.746-36.435-25.973-50.763z" horiz-adv-x="448" />
<glyph unicode="&#xe6cc;" d="M420.19 249.59h-34.12v-204.72h-42.65v375.32h-51.18v-375.32h-42.65v255.9h-51.18v-255.9h-42.65v102.36h-51.18v-102.36h-42.575v153.54h-51.18v-153.54h-0.075v-17.060h426.5v221.78z" horiz-adv-x="448" />
<glyph unicode="&#xe6cd;" d="M69.962 150.679l50.597-33.729 85.7 119.987 77.037-60.876 129.424 187.368v65.291h-409.44v-355.686zM286.978 151.42l-77.237 61.026-84.9-118.854-51.763 34.512-69.798-81.268v-27.556h409.44v314.203z" horiz-adv-x="416" />
<glyph unicode="&#xe6ce;" d="M431.925 462.84c-23.516 0-42.65-19.126-42.65-42.633 0-14.819 7.614-27.881 19.118-35.528l-80.644-212.55c-2.232 0.366-4.481 0.691-6.805 0.691-10.221 0-19.484-3.765-26.84-9.78l-80.693 66.649c3.182 5.973 5.156 12.679 5.156 19.9 0 23.516-19.134 42.65-42.65 42.65s-42.65-19.134-42.65-42.65c0-12.703 5.698-24.007 14.544-31.829l-85.983-149.765c-4.339 1.491-8.904 2.474-13.744 2.474-23.524 0-42.659-19.126-42.659-42.633 0-23.533 19.134-42.676 42.659-42.676 23.516 0 42.641 19.143 42.641 42.676 0 12.537-5.539 23.707-14.185 31.521l86.075 149.924c4.215-1.399 8.63-2.341 13.303-2.341 10.122 0 19.301 3.691 26.623 9.596l80.777-66.716c-3.099-5.914-5.023-12.528-5.023-19.651 0-23.516 19.135-42.65 42.65-42.65 23.516 0 42.65 19.135 42.65 42.65 0 15.136-7.98 28.364-19.892 35.945l80.518 212.201c2.508-0.459 5.065-0.775 7.705-0.775 23.516 0 42.65 19.143 42.65 42.667-0.001 23.507-19.135 42.633-42.651 42.633z" horiz-adv-x="480" />
<glyph unicode="&#xe6cf;" d="M232.53 236.586l183.92 79.395c-33.179 69.331-102.702 117.962-183.92 121.161v-200.556zM215.47 221.484v215.658c-113.814-4.482-204.72-98.137-204.72-213.034 0-117.786 95.48-213.25 213.25-213.25 41.367 0 79.96 11.821 112.657 32.204l0.116-0.166 6.356 4.315c0.075 0.049 0.142 0.091 0.217 0.142l1.274 0.858-129.15 173.273zM437.25 224.108c0 26.857-5.022 52.529-14.094 76.204l-186.086-80.26 121.061-161.629c48.231 39.084 79.119 98.745 79.119 165.685z" horiz-adv-x="448" />
</font>
</defs>
</svg>
